本站已运行

蓝光高清网

搜索
开启左侧

里奥·贝克:逆风滑板手/站在滑板上:利奥·贝克的故事4k.Stay.on.Board.The.Leo.Baker.Story.2022.2160p.NF.WEB-DL.x265.10bit.SDR.DDP5.1-电影下载

蓝鸟 发表于 2023-1-22 22:23:53 | 显示全部楼层 |阅读模式
站在滑板上:利奥·贝克的故事 豆瓣评分: 8.1分
上映时间:2022年        影片时长:72分钟
类型:纪录 运动 
地区:美国 
导演:Nicola Marsh / Giovanni Reda
主演:Leo Baker
画质标准:4K SDR  封装音轨:Dolby TrueHD 5.1 
简       介

  这部的纪录片将通过美国滑板运动员、非二元跨儿利奥·贝克的经历,探讨滑板这项运动的性别问题。


影片参数
里奥·贝克:逆风滑板手/站在滑板上:利奥·贝克的故事4k.Stay.on.Board.The.Leo.Baker.Story.2022.2160p.NF.WEB-DL.x265.10bit.SDR.DDP5.1-电影信息
Video
ID : 1
Format : HEVC
Format/Info : High Efficiency Video Coding
Format profile : Main 10@L5@Main
Codec ID : V_MPEGH/ISO/HEVC
Duration : 1 h 13 min
Bit rate : 12.0 Mb/s
Width : 3 840 pixels
Height : 2 160 pixels
Display aspect ratio : 16:9
Frame rate mode : Constant
Frame rate : 23.976 (24000/1001) FPS
Color space : YUV
Chroma subsampling : 4:2:0
Bit depth : 10 bits
Bits/(Pixel*Frame) : 0.061
Stream size : 6.16 GiB (95%)
Default : Yes
Forced : No
Color range : Limited
Color primaries : BT.709
Transfer characteristics : BT.709
Matrix coefficients : BT.709


Audio
ID : 2
Format : E-AC-3
Format/Info : Enhanced AC-3
Commercial name : Dolby Digital Plus
Codec ID : A_EAC3
Duration : 1 h 13 min
Bit rate mode : Constant
Bit rate : 640 kb/s
Channel(s) : 6 channels
Channel layout : L R C LFE Ls Rs
Sampling rate : 48.0 kHz
Frame rate : 31.250 FPS (1536 SPF)
Compression mode : Lossy
Stream size : 335 MiB (5%)
Title : English
Language : English
Service kind : Complete Main
Default : Yes
Forced : No


Text #27
ID : 29
Format : UTF-8
Codec ID : S_TEXT/UTF8
Codec ID/Info : UTF-8 Plain Text
Duration : 1 h 12 min
Bit rate : 69 b/s
Frame rate : 0.238 FPS
Count of elements : 1036
Stream size : 36.8 KiB (0%)
Title : Swedish
Language : Swedish
Default : No
Forced : No


Text #28
ID : 30
Format : UTF-8
Codec ID : S_TEXT/UTF8
Codec ID/Info : UTF-8 Plain Text
Duration : 1 h 12 min
Bit rate : 199 b/s
Frame rate : 0.260 FPS
Count of elements : 1134
Stream size : 106 KiB (0%)
Title : Thai
Language : Thai
Default : No
Forced : No


Text #29
ID : 31
Format : UTF-8
Codec ID : S_TEXT/UTF8
Codec ID/Info : UTF-8 Plain Text
Duration : 1 h 12 min
Bit rate : 71 b/s
Frame rate : 0.251 FPS
Count of elements : 1091
Stream size : 38.0 KiB (0%)
Title : Turkish
Language : Turkish
Default : No
Forced : No


Text #30
ID : 32
Format : UTF-8
Codec ID : S_TEXT/UTF8
Codec ID/Info : UTF-8 Plain Text
Duration : 1 h 12 min
Bit rate : 110 b/s
Frame rate : 0.252 FPS
Count of elements : 1099
Stream size : 58.8 KiB (0%)
Title : Ukrainian
Language : Ukrainian
Default : No
Forced : No


Text #31
ID : 33
Format : UTF-8
Codec ID : S_TEXT/UTF8
Codec ID/Info : UTF-8 Plain Text
Duration : 1 h 12 min
Bit rate : 103 b/s
Frame rate : 0.253 FPS
Count of elements : 1101
Stream size : 54.7 KiB (0%)
Title : Vietnamese
Language : Vietnamese
Default : No
Forced : No


Text #32
ID : 34
Format : UTF-8
Codec ID : S_TEXT/UTF8
Codec ID/Info : UTF-8 Plain Text
Duration : 1 h 12 min
Bit rate : 74 b/s
Frame rate : 0.255 FPS
Count of elements : 1110
Stream size : 39.9 KiB (0%)
Title : Simplified, Chinese
Language : Chinese
Default : No
Forced : No


Text #33
ID : 35
Format : UTF-8
Codec ID : S_TEXT/UTF8
Codec ID/Info : UTF-8 Plain Text
Duration : 1 h 12 min
Bit rate : 81 b/s
Frame rate : 0.254 FPS
Count of elements : 1107
Stream size : 43.4 KiB (0%)
Title : Traditional, Chinese
Language : Chinese
Default : No
Forced : No


Menu
00:00:00.000 : enart 01
01:12:03.450 : en:Credits


蓝光高清网提示您 点击下方附件名称 即可开始下载


多版本下载时请注意区分


里奥·贝克:逆风滑板手/站在滑板上:利奥·贝克的故事4k.Stay.on.Board.The.Leo.Baker.Story.2022.2160p.NF.WEB-DL.x265.10bit.SDR.DDP5.1-电影下载

站在滑板上:利奥·贝克的故事4k.Stay.on.Board.The.Leo.Baker.Story.2022.2160p.NF.WEB-DL.x265.10bit.SDR.DDP5.1-简繁中字【6.50 GB】

站在滑板上:利奥·贝克的故事4k.Stay.on.Board.The.Leo.Baker.Story.2022.2160p.NF.WEB-DL.x265.10bit.SDR.DDP5.1-XEBEC.torrent ( 16.92 KB )



站在滑板上:利奥·贝克的故事4k.Stay.on.Board.The.Leo.Baker.Story.2022.2160p.NF.WEB-DL.x265.10bit.HDR.DDP5.1-简繁中字【8.55 GB】

站在滑板上:利奥·贝克的故事4k.Stay.on.Board.The.Leo.Baker.Story.2022.2160p.NF.WEB-DL.x265.10bit.HDR.DDP5.1-XEBEC.torrent ( 22.06 KB )



站在滑板上:利奥·贝克的故事4k.Stay.on.Board.The.Leo.Baker.Story.2022.2160p.NF.WEB-DL.DDP5.1.DV.MP4.x265-简繁中字【杜比视界】【8.60 GB】

站在滑板上:利奥·贝克的故事4k.Stay.on.Board.The.Leo.Baker.Story.2022.2160p.NF.WEB-DL.DDP5.1.DV.MP4.x265-DVSUX.torrent ( 22.18 KB )



站在滑板上:利奥·贝克的故事4k.Stay.on.Board.The.Leo.Baker.Story.2022.2160p.NF.WEB-DL.DDP5.1.DV.MKV.x265-简繁中字【杜比视界】【8.60 GB】

站在滑板上:利奥·贝克的故事4k.Stay.on.Board.The.Leo.Baker.Story.2022.2160p.NF.WEB-DL.DDP5.1.DV.MKV.x265-XEBEC.torrent ( 22.17 KB )



加入蓝光高清网VIP会员  无限制下载本站所有资源---点这里

资源下载、资源播放、字幕使用、无法下载等常见问题---点这里
回复

使用道具 举报

全部回复1 显示全部楼层
1080i 发表于 6 天前 | 显示全部楼层
T.h.a.n.k.s
回复

使用道具 举报

发表回复

您需要登录后才可以回帖 登录 | 立即注册

本版积分规则