本站已运行

蓝光高清网

搜索
开启左侧

单身大急救(港) / 男女生了没(台) / 丑陋事实 / 女上男下/丑陋的真相4k.The.Ugly.Truth.2009.2160p.NF.WEB-DL.x265.10bit.SDR.DTS-HD.MA.5.1-电影下载

蓝鸟 发表于 2023-1-22 22:29:23 | 显示全部楼层 |阅读模式
丑陋的真相 豆瓣评分: 6.7分
上映时间:2009年        影片时长:98分钟
类型:喜剧 爱情 
地区:泰国 
导演:罗伯特·路克蒂克
主演:凯瑟琳·海格尔 / 杰拉德·巴特勒 / 切瑞·海恩斯 / 艾里克·温特 / 邦妮· 萨默维尔
画质标准:4K SDR  封装音轨:DTS-HD.MA 5.1 
简       介



  艾比(凯瑟琳·海格尔 Katherine Heigl 饰)是同事眼中的完美女神,作为早间电视节目制作人的她不仅事业有成,而且还有着一张精致漂亮的脸蛋。但令同事们困扰的是,这样完美的艾比,年近三十却依然单身。只有艾比心里清楚,自己之所以单身,是因为心目中的那个完美先生还没有出现。
  作为艾比的同事,麦克(杰拉德·巴特勒 Gerard Butler 饰)对态度强硬的艾比产生了浓厚的兴趣,所以,当艾比邂逅了医生科林(艾里克·温特 Eric Winter 饰)并为之心动后,他主动提出要为她的恋情出谋划策。在麦克的帮助下,艾比的感情之路一帆风顺,但在这过程中,艾比发现自己对于麦克的感情渐渐地变得复杂起来。



影片参数
单身大急救(港) / 男女生了没(台) / 丑陋事实 / 女上男下/丑陋的真相4k.The.Ugly.Truth.2009.2160p.NF.WEB-DL.x265.10bit.SDR.DTS-HD.MA.5.1-电影信息
Video
ID : 1
Format : HEVC
Format/Info : High Efficiency Video Coding
Format profile : Main 10@L5@Main
Codec ID : V_MPEGH/ISO/HEVC
Duration : 1 h 36 min
Bit rate : 17.3 Mb/s
Width : 3 840 pixels
Height : 2 160 pixels
Display aspect ratio : 16:9
Frame rate mode : Constant
Frame rate : 23.976 (24000/1001) FPS
Color space : YUV
Chroma subsampling : 4:2:0
Bit depth : 10 bits
Bits/(Pixel*Frame) : 0.087
Stream size : 11.6 GiB (81%)
Default : Yes
Forced : No
Color range : Limited
Color primaries : BT.709
Transfer characteristics : BT.709
Matrix coefficients : BT.709


Audio #1
ID : 2
Format : DTS XLL
Format/Info : Digital Theater Systems
Commercial name : DTS-HD Master Audio
Codec ID : A_DTS
Duration : 1 h 35 min
Bit rate mode : Variable
Bit rate : 2 889 kb/s
Channel(s) : 6 channels
Channel layout : C L R Ls Rs LFE
Sampling rate : 48.0 kHz
Frame rate : 93.750 FPS (512 SPF)
Bit depth : 24 bits
Compression mode : Lossless
Stream size : 1.94 GiB (13%)
Title : DTS-HD MA 5.1
Language : English
Default : Yes
Forced : No


Audio #2
ID : 3
Format : E-AC-3
Format/Info : Enhanced AC-3
Commercial name : Dolby Digital Plus
Codec ID : A_EAC3
Duration : 1 h 36 min
Bit rate mode : Constant
Bit rate : 640 kb/s
Channel(s) : 6 channels
Channel layout : L R C LFE Ls Rs
Sampling rate : 48.0 kHz
Frame rate : 31.250 FPS (1536 SPF)
Compression mode : Lossy
Stream size : 440 MiB (3%)
Title : English
Language : English
Service kind : Complete Main
Default : No
Forced : No


Audio #3
ID : 4
Format : AC-3
Format/Info : Audio Coding 3
Commercial name : Dolby Digital
Format settings : Dolby Surround
Codec ID : A_AC3
Duration : 1 h 35 min
Bit rate mode : Constant
Bit rate : 192 kb/s
Channel(s) : 2 channels
Channel layout : L R
Sampling rate : 48.0 kHz
Frame rate : 31.250 FPS (1536 SPF)
Compression mode : Lossy
Stream size : 132 MiB (1%)
Title : Commentary by Director Robert Luketic and Producer Gary Lucchesi
Language : English
Service kind : Complete Main
Default : No
Forced : No




Text #23
ID : 27
Format : UTF-8
Codec ID : S_TEXT/UTF8
Codec ID/Info : UTF-8 Plain Text
Duration : 1 h 30 min
Bit rate : 67 b/s
Frame rate : 0.273 FPS
Count of elements : 1479
Stream size : 44.4 KiB (0%)
Title : Polish
Language : Polish
Default : No
Forced : No


Text #24
ID : 28
Format : UTF-8
Codec ID : S_TEXT/UTF8
Codec ID/Info : UTF-8 Plain Text
Duration : 1 h 30 min
Bit rate : 85 b/s
Frame rate : 0.277 FPS
Count of elements : 1500
Stream size : 56.5 KiB (0%)
Title : Portuguese
Language : Portuguese
Default : No
Forced : No


Text #25
ID : 29
Format : UTF-8
Codec ID : S_TEXT/UTF8
Codec ID/Info : UTF-8 Plain Text
Duration : 1 h 30 min
Bit rate : 75 b/s
Frame rate : 0.269 FPS
Count of elements : 1457
Stream size : 50.0 KiB (0%)
Title : Portuguese
Language : Portuguese
Default : No
Forced : No


Text #26
ID : 30
Format : UTF-8
Codec ID : S_TEXT/UTF8
Codec ID/Info : UTF-8 Plain Text
Duration : 1 h 30 min
Bit rate : 83 b/s
Frame rate : 0.283 FPS
Count of elements : 1532
Stream size : 55.3 KiB (0%)
Title : Romanian
Language : Romanian
Default : No
Forced : No


Text #27
ID : 31
Format : UTF-8
Codec ID : S_TEXT/UTF8
Codec ID/Info : UTF-8 Plain Text
Duration : 1 h 34 min
Bit rate : 126 b/s
Frame rate : 0.268 FPS
Count of elements : 1524
Stream size : 87.6 KiB (0%)
Title : Russian
Language : Russian
Default : No
Forced : No


Text #28
ID : 32
Format : UTF-8
Codec ID : S_TEXT/UTF8
Codec ID/Info : UTF-8 Plain Text
Duration : 1 h 34 min
Bit rate : 70 b/s
Frame rate : 0.203 FPS
Count of elements : 1149
Stream size : 48.6 KiB (0%)
Title : Swedish
Language : Swedish
Default : No
Forced : No


Text #29
ID : 33
Format : UTF-8
Codec ID : S_TEXT/UTF8
Codec ID/Info : UTF-8 Plain Text
Duration : 1 h 34 min
Bit rate : 198 b/s
Frame rate : 0.268 FPS
Count of elements : 1520
Stream size : 138 KiB (0%)
Title : Thai
Language : Thai
Default : No
Forced : No


Text #30
ID : 34
Format : UTF-8
Codec ID : S_TEXT/UTF8
Codec ID/Info : UTF-8 Plain Text
Duration : 1 h 30 min
Bit rate : 80 b/s
Frame rate : 0.281 FPS
Count of elements : 1522
Stream size : 53.5 KiB (0%)
Title : Turkish
Language : Turkish
Default : No
Forced : No


Text #31
ID : 35
Format : UTF-8
Codec ID : S_TEXT/UTF8
Codec ID/Info : UTF-8 Plain Text
Duration : 1 h 34 min
Bit rate : 143 b/s
Frame rate : 0.275 FPS
Count of elements : 1560
Stream size : 99.0 KiB (0%)
Title : Ukrainian
Language : Ukrainian
Default : No
Forced : No


Text #32
ID : 36
Format : UTF-8
Codec ID : S_TEXT/UTF8
Codec ID/Info : UTF-8 Plain Text
Duration : 1 h 34 min
Bit rate : 115 b/s
Frame rate : 0.268 FPS
Count of elements : 1522
Stream size : 80.1 KiB (0%)
Title : Vietnamese
Language : Vietnamese
Default : No
Forced : No


Text #33
ID : 37
Format : UTF-8
Codec ID : S_TEXT/UTF8
Codec ID/Info : UTF-8 Plain Text
Duration : 1 h 30 min
Bit rate : 70 b/s
Frame rate : 0.281 FPS
Count of elements : 1520
Stream size : 46.4 KiB (0%)
Title : Simplified, Chinese
Language : Chinese
Default : No
Forced : No


Text #34
ID : 38
Format : UTF-8
Codec ID : S_TEXT/UTF8
Codec ID/Info : UTF-8 Plain Text
Duration : 1 h 30 min
Bit rate : 70 b/s
Frame rate : 0.281 FPS
Count of elements : 1520
Stream size : 46.3 KiB (0%)
Title : Traditional, Chinese
Language : Chinese
Default : No
Forced : No


蓝光高清网提示您 点击下方附件名称 即可开始下载


单身大急救(港) / 男女生了没(台) / 丑陋事实 / 女上男下/丑陋的真相4k.The.Ugly.Truth.2009.2160p.NF.WEB-DL.x265.10bit.SDR.DTS-HD.MA.5.1-电影下载

丑陋的真相4k.The.Ugly.Truth.2009.2160p.NF.WEB-DL.x265.10bit.SDR.DTS-HD.MA.5.1-简繁中字【14.35 GB】

丑陋的真相4k.The.Ugly.Truth.2009.2160p.NF.WEB-DL.x265.10bit.SDR.DTS-HD.MA.5.1-NOGRP.torrent ( 18.61 KB )



加入蓝光高清网VIP会员  无限制下载本站所有资源---点这里

资源下载、资源播放、字幕使用、无法下载等常见问题---点这里
回复

使用道具 举报

全部回复2 显示全部楼层
1080i 发表于 2023-1-31 02:00:47 | 显示全部楼层
T.h.a.n.k.s
回复

使用道具 举报

gdlmxia 发表于 11 小时前 | 显示全部楼层
太好啦&萬分感謝版主的無私發佈分享%
回复 支持 反对

使用道具 举报

发表回复

您需要登录后才可以回帖 登录 | 立即注册

本版积分规则