本站已运行

蓝光高清网

搜索
开启左侧

渗透4k.Transfusion.2023.2160p.STAN.WEB-DL.x265.10bit.HDR.DDP5.1-电影下载

蓝鸟 发表于 2023-1-22 22:32:43 | 显示全部楼层 |阅读模式
渗透 豆瓣评分: 无评分
上映时间:2023年        影片时长:108分钟
类型:剧情 惊悚 犯罪 
地区:其他 
导演:马特·纳夫莱
主演:萨姆·沃辛顿 / 菲比·汤金 / 马特·纳夫莱 / 苏茜·波特 / 杰里米·林赛·泰勒
画质标准:4K HDR  封装音轨:Dolby TrueHD 5.1 
简       介


  萨姆·沃辛顿(《阿凡达》)和菲比·托金(《吸血鬼日记》)将主演惊悚片《渗透》(Transfusion)。
  本片由演员马特·纳夫莱(《血战钢锯岭》《中间人先生》)献出导演首秀,他也将出演。讲述一名前特种部队特工为了不让他的独子被带走,而进入犯罪黑社会的世界中。



影片参数
渗透4k.Transfusion.2023.2160p.STAN.WEB-DL.x265.10bit.HDR.DDP5.1-电影信息
Video
ID : 1
Format : HEVC
Format/Info : High Efficiency Video Coding
Format profile : Main 10@L5@High
HDR format : SMPTE ST 2086, HDR10 compatible
Codec ID : V_MPEGH/ISO/HEVC
Duration : 1 h 45 min
Bit rate : 12.1 Mb/s
Width : 3 840 pixels
Height : 2 160 pixels
Display aspect ratio : 16:9
Frame rate mode : Constant
Frame rate : 24.000 FPS
Color space : YUV
Chroma subsampling : 4:2:0
Bit depth : 10 bits
Bits/(Pixel*Frame) : 0.061
Stream size : 8.90 GiB (97%)
Language : English
Default : Yes
Forced : No
Color range : Limited
Color primaries : BT.2020
Transfer characteristics : PQ
Matrix coefficients : BT.2020 non-constant
Mastering display color primaries : BT.2020
Mastering display luminance : min: 0.0001 cd/m2, max: 1000 cd/m2


Audio
ID : 2
Format : E-AC-3
Format/Info : Enhanced AC-3
Commercial name : Dolby Digital Plus
Codec ID : A_EAC3
Duration : 1 h 45 min
Bit rate mode : Constant
Bit rate : 384 kb/s
Channel(s) : 6 channels
Channel layout : L R C LFE Ls Rs
Sampling rate : 48.0 kHz
Frame rate : 31.250 FPS (1536 SPF)
Compression mode : Lossy
Stream size : 290 MiB (3%)
Language : English-x-main-surround
Service kind : Complete Main
Default : Yes
Forced : No


Text
ID : 3
Format : UTF-8
Codec ID : S_TEXT/UTF8
Codec ID/Info : UTF-8 Plain Text
Duration : 1 h 37 min
Bit rate : 43 b/s
Frame rate : 0.215 FPS
Count of elements : 1258
Stream size : 31.0 KiB (0%)
Title : CC
Language : English
Default : No
Forced : No


蓝光高清网提示您 点击下方附件名称 即可开始下载


多版本下载时请注意区分


渗透4k.Transfusion.2023.2160p.STAN.WEB-DL.x265.10bit.HDR.DDP5.1-电影下载

渗透4k.Transfusion.2023.2160p.STAN.WEB-DL.x265.10bit.HDR.DDP5.1【9.19 GB】

渗透4k.Transfusion.2023.2160p.STAN.WEB-DL.x265.10bit.HDR.DDP5.1-playWEB.torrent ( 23.63 KB )



渗透4k.Transfusion.2023.2160p.STAN.WEB-DL.x265.8bit.SDR.DDP5.1【9.74 GB】

渗透4k.Transfusion.2023.2160p.STAN.WEB-DL.x265.8bit.SDR.DDP5.1-NOGRP.torrent ( 24.99 KB )



评分记录活跃度 收起 理由
htl2001 + 1 精彩
总评分: 活跃度 + 1 
加入蓝光高清网VIP会员  无限制下载本站所有资源---点这里

资源下载、资源播放、字幕使用、无法下载等常见问题---点这里
回复

使用道具 举报

全部回复4 显示全部楼层
dongshouba手机认证 发表于 2023-1-23 01:29:02 | 显示全部楼层
感谢分享
回复

使用道具 举报

PCHUN 发表于 2023-1-26 00:22:36 | 显示全部楼层
Thanks for sharing
回复 支持 反对

使用道具 举报

1080i 发表于 2023-1-31 02:00:38 | 显示全部楼层
T.h.a.n.k.s
回复

使用道具 举报

gdlmxia 发表于 3 天前 | 显示全部楼层
太好啦&萬分感謝版主的無私發佈分享%
回复 支持 反对

使用道具 举报

发表回复

您需要登录后才可以回帖 登录 | 立即注册

本版积分规则