本站已运行

蓝光高清网

搜索
开启左侧

狂风飒飒4k.Wild.Is.the.Wind.2022.2160p.NF.WEB-DL.x265.10bit.SDR.DDP5.1-电影下载

蓝鸟 发表于 2023-1-22 22:35:00 | 显示全部楼层 |阅读模式
狂风飒飒 豆瓣评分: 6.2分
上映时间:2022年        影片时长:123分钟
类型:剧情 犯罪 
地区:其他 
导演:Fabian Medea
主演:Phoenix Baaitse / Chris Chameleon / Deon Coetzee
画质标准:4K SDR  封装音轨:Dolby TrueHD 5.1 
简       介


  警方在草丛中发现一具白人女孩的尸体,随后,种族矛盾和腐败问题开始在这个小镇愈演愈烈。


影片参数
狂风飒飒4k.Wild.Is.the.Wind.2022.2160p.NF.WEB-DL.x265.10bit.SDR.DDP5.1-电影信息
Video
ID : 1
Format : HEVC
Format/Info : High Efficiency Video Coding
Format profile : Main 10@L5@Main
Codec ID : V_MPEGH/ISO/HEVC
Duration : 2 h 8 min
Bit rate : 11.7 Mb/s
Width : 3 840 pixels
Height : 2 160 pixels
Display aspect ratio : 16:9
Frame rate mode : Constant
Frame rate : 25.000 FPS
Color space : YUV
Chroma subsampling : 4:2:0
Bit depth : 10 bits
Bits/(Pixel*Frame) : 0.056
Stream size : 10.5 GiB (95%)
Default : Yes
Forced : No
Color range : Limited
Color primaries : BT.709
Transfer characteristics : BT.709
Matrix coefficients : BT.709


Audio
ID : 2
Format : E-AC-3
Format/Info : Enhanced AC-3
Commercial name : Dolby Digital Plus
Codec ID : A_EAC3
Duration : 2 h 8 min
Bit rate mode : Constant
Bit rate : 640 kb/s
Channel(s) : 6 channels
Channel layout : L R C LFE Ls Rs
Sampling rate : 48.0 kHz
Frame rate : 31.250 FPS (1536 SPF)
Compression mode : Lossy
Stream size : 586 MiB (5%)
Title : English
Language : English
Service kind : Complete Main
Default : No
Forced : No


Text #1
ID : 3
Format : UTF-8
Codec ID : S_TEXT/UTF8
Codec ID/Info : UTF-8 Plain Text
Duration : 2 h 7 min
Bit rate : 60 b/s
Frame rate : 0.153 FPS
Count of elements : 1164
Stream size : 56.3 KiB (0%)
Title : Arabic
Language : Arabic
Default : No
Forced : No


Text #2
ID : 4
Format : UTF-8
Codec ID : S_TEXT/UTF8
Codec ID/Info : UTF-8 Plain Text
Duration : 2 h 7 min
Bit rate : 36 b/s
Frame rate : 0.145 FPS
Count of elements : 1106
Stream size : 34.0 KiB (0%)
Title : Chinese Simplified
Language : Chinese
Default : No
Forced : No


Text #3
ID : 5
Format : UTF-8
Codec ID : S_TEXT/UTF8
Codec ID/Info : UTF-8 Plain Text
Duration : 2 h 7 min
Bit rate : 32 b/s
Frame rate : 0.144 FPS
Count of elements : 1095
Stream size : 30.4 KiB (0%)
Title : Chinese Traditional
Language : Chinese
Default : No
Forced : No


蓝光高清网提示您 点击下方附件名称 即可开始下载


狂风飒飒4k.Wild.Is.the.Wind.2022.2160p.NF.WEB-DL.x265.10bit.SDR.DDP5.1-电影下载

狂风飒飒4k.Wild.Is.the.Wind.2022.2160p.NF.WEB-DL.x265.10bit.SDR.DDP5.1-简繁中字【11.05 GB】

狂风飒飒4k.Wild.Is.the.Wind.2022.2160p.NF.WEB-DL.x265.10bit.SDR.DDP5.1-HHWEB.torrent ( 14.46 KB )



加入蓝光高清网VIP会员  无限制下载本站所有资源---点这里

资源下载、资源播放、字幕使用、无法下载等常见问题---点这里
回复

使用道具 举报

全部回复1 显示全部楼层
1080i 发表于 2023-1-23 01:48:37 | 显示全部楼层
T.h.a.n.k.s
回复

使用道具 举报

发表回复

您需要登录后才可以回帖 登录 | 立即注册

本版积分规则