本站已运行

蓝光高清网

搜索
开启左侧

室友梅根(台) / 人工杀姬(港) / 窒友梅根 / 玩偶梅根 / M3gan/梅根4k.M3GAN.2023.2160p.MA.WEB-DL.x265.10bit.HDR.DDP5.1.Atmos-电影下载

蓝鸟 发表于 2023-1-24 20:30:05 | 显示全部楼层 |阅读模式
梅根 豆瓣评分: 6.2分
上映时间:2022年        影片时长:102分钟
类型:惊悚 恐怖 科幻 
地区:美国 
导演:热拉尔·约翰斯通
主演:艾莉森·威廉姆斯 / 维奥莱特·麦格劳 / 钱信伊 / 珍娜·戴维斯 / 布莱恩·乔丹·阿尔瓦雷斯
画质标准:4K HDR  封装音轨:Dolby TrueHD 5.1 
简       介


  “她不只是个玩具,而是这个家的一份子。”
  梅根(M3GAN)是一个具备高度人工智能、栩栩如生的玩具人偶,被设计成小孩子最好的玩伴和令家长最安心的盟友。这款玩具人偶由一名玩具公司杰出的机器人专家洁玛(艾莉森·威廉姆斯 饰)精心设计,梅根能够借由聆听以及观察学习人类行为,并且成为她照顾的小孩的朋友、老师、玩伴和保护者。
  当洁玛突然成为她失去双亲的八岁侄女凯蒂(维奥莱特·麦格劳 饰)的监护人之后,洁玛并不确定也没有准备好能够成为一个好的家长,加上她的工作压力非常巨大,于是就决定将她设计的人工智能玩具人偶梅根和凯蒂配对,试图解决照顾凯蒂这个孤儿和纾解她工作压力这两个问题,但是她的这个决定却造成无法想像的严重后果。



影片参数
室友梅根(台) / 人工杀姬(港) / 窒友梅根 / 玩偶梅根 / M3gan/梅根4k.M3GAN.2023.2160p.MA.WEB-DL.x265.10bit.HDR.DDP5.1.Atmos-电影信息
Video
ID : 1
Format : HEVC
Format/Info : High Efficiency Video Coding
Format profile : Main 10@L5@High
HDR format : Dolby Vision, Version 1.0, dvhe.08.06, BL+RPU, HDR10 compatible / SMPTE ST 2086, HDR10 compatible
Codec ID : V_MPEGH/ISO/HEVC
Duration : 1 h 41 min
Bit rate : 24.3 Mb/s
Width : 3 840 pixels
Height : 2 160 pixels
Display aspect ratio : 16:9
Frame rate mode : Constant
Frame rate : 23.976 (24000/1001) FPS
Color space : YUV
Chroma subsampling : 4:2:0 (Type 2)
Bit depth : 10 bits
Bits/(Pixel*Frame) : 0.122
Stream size : 17.3 GiB (97%)
Language : English
Default : Yes
Forced : No
Color range : Limited
Color primaries : BT.2020
Transfer characteristics : PQ
Matrix coefficients : BT.2020 non-constant
Mastering display color primaries : BT.2020
Mastering display luminance : min: 0.0500 cd/m2, max: 1000 cd/m2
Maximum Content Light Level : 629 cd/m2
Maximum Frame-Average Light Level : 164 cd/m2


Audio
ID : 2
Format : E-AC-3 JOC
Format/Info : Enhanced AC-3 with Joint Object Coding
Commercial name : Dolby Digital Plus with Dolby Atmos
Codec ID : A_EAC3
Duration : 1 h 41 min
Bit rate mode : Constant
Bit rate : 768 kb/s
Channel(s) : 6 channels
Channel layout : L R C LFE Ls Rs
Sampling rate : 48.0 kHz
Frame rate : 31.250 FPS (1536 SPF)
Compression mode : Lossy
Stream size : 560 MiB (3%)
Language : English
Service kind : Complete Main
Default : Yes
Forced : No
Complexity index : 16
Number of dynamic objects : 15
Bed channel count : 1 channel
Bed channel configuration : LFE


Text #1
ID : 3
Format : UTF-8
Codec ID : S_TEXT/UTF8
Codec ID/Info : UTF-8 Plain Text
Duration : 1 h 41 min
Bit rate : 76 b/s
Frame rate : 0.306 FPS
Count of elements : 1870
Stream size : 57.4 KiB (0%)
Title : SDH
Language : English
Default : No
Forced : No


Text #2
ID : 4
Format : UTF-8
Codec ID : S_TEXT/UTF8
Codec ID/Info : UTF-8 Plain Text
Duration : 1 h 41 min
Bit rate : 69 b/s
Frame rate : 0.271 FPS
Count of elements : 1648
Stream size : 51.4 KiB (0%)
Language : English
Default : No
Forced : No


蓝光高清网提示您 点击下方附件名称 即可开始下载


室友梅根(台) / 人工杀姬(港) / 窒友梅根 / 玩偶梅根 / M3gan/梅根4k.M3GAN.2023.2160p.MA.WEB-DL.x265.10bit.HDR.DDP5.1.Atmos-电影下载

梅根4k.M3GAN.2023.2160p.MA.WEB-DL.x265.10bit.HDR.DDP5.1.Atmos【17.85 GB】

梅根4k.M3GAN.2023.2160p.MA.WEB-DL.x265.10bit.HDR.DDP5.1.Atmos-CM.torrent ( 22.95 KB )



加入蓝光高清网VIP会员  无限制下载本站所有资源---点这里

资源下载、资源播放、字幕使用、无法下载等常见问题---点这里
回复

使用道具 举报

全部回复1 显示全部楼层
1080i 发表于 2023-1-26 00:57:34 | 显示全部楼层
T.h.a.n.k.s
回复

使用道具 举报

发表回复

您需要登录后才可以回帖 登录 | 立即注册

本版积分规则