本站已运行

蓝光高清网

搜索
开启左侧

赛车总动员:公路旅行 Cars.on.the.Road.S01.Trucks.REPACK.2160p.WEB-DL.DDP5.1.H.265-NTb 4k动画片下载

蓝鸟 发表于 2023-1-24 20:37:54 | 显示全部楼层 |阅读模式
赛车总动员:公路旅行 豆瓣评分: 7.8分

状态:第一季(完结)
上映时间:2022-09-08
类型:喜剧 动画 冒险 运动 
地区:美国
导演:史蒂夫·普切尔 / 博比·波德斯塔 / 布莱恩·菲
主演:欧文·威尔逊 / 王牌接线员拉里
画质标准:4K(3840x2160) 封装音轨:5.1声道 音轨编码:其他DD
剧情简介
  皮克斯重启了《赛车总动员》系列,系列动画讲述了闪电麦昆和朋友拖车麦大叔进行的一次穿越全国的公路旅行,剧集中将加入新角色、老角色、新目的地等元素。
  全新的《赛车总动员》剧集将于2022年秋登录流媒体平台....
影片参数
General
Format                         : Matroska
Format version                 : Version 4
File size                      : 1.52 GiB
Duration                       : 10 min 36 s
Overall bit rate               : 20.5 Mb/s
Writing application            : mkvmerge v70.0.0 ('Caught A Lite Sneeze') 64-bit
Writing library                : libebml v1.4.2 + libmatroska v1.6.4

Video
ID                             : 1
Format                         : HEVC
Format/Info                    : High Efficiency Video Coding
Format profile                 : Main@L5@High
Codec ID                       : V_MPEGH/ISO/HEVC
Duration                       : 10 min 34 s
Bit rate                       : 19.8 Mb/s
Width                          : 3 840 pixels
Height                         : 2 160 pixels
Display aspect ratio           : 16:9
Frame rate mode                : Constant
Frame rate                     : 23.976 (24000/1001) FPS
Color space                    : YUV
Chroma subsampling             : 4:2:0
Bit depth                      : 8 bits
Bits/(Pixel*Frame)             : 0.100
Stream size                    : 1.46 GiB (96%)
Writing library                : x265 3.5:[Linux][GCC 9.4.0][64 bit] 8bit+10bit+12bit
Encoding settings              : cpuid=1111039 / frame-threads=1 / numa-pools=16 / wpp / no-pmode / no-pme / no-psnr / no-ssim / log-level=2 / input-csp=1 / input-res=3840x2160 / interlace=0 / total-frames=0 / level-idc=50 / high-tier=1 / uhd-bd=0 / ref=2 / no-allow-non-conformance / repeat-headers / annexb / no-aud / no-hrd / info / hash=0 / no-temporal-layers / no-open-gop / min-keyint=48 / keyint=48 / gop-lookahead=0 / bframes=4 / b-adapt=0 / b-pyramid / bframe-bias=0 / rc-lookahead=48 / lookahead-slices=8 / scenecut=0 / hist-scenecut=0 / radl=0 / splice / no-intra-refresh / ctu=32 / min-cu-size=8 / no-rect / no-amp / max-tu-size=16 / tu-inter-depth=2 / tu-intra-depth=2 / limit-tu=0 / rdoq-level=1 / dynamic-rd=0.00 / no-ssim-rd / signhide / no-tskip / nr-intra=0 / nr-inter=0 / no-constrained-intra / no-strong-intra-smoothing / max-merge=3 / limit-refs=1 / no-limit-modes / me=1 / subme=2 / merange=44 / temporal-mvp / no-frame-dup / no-hme / weightp / no-weightb / no-analyze-src-pics / deblock=0:0 / no-sao / no-sao-non-deblock / rd=4 / selective-sao=0 / early-skip / rskip / no-fast-intra / no-tskip-fast / no-cu-lossless / b-intra / no-splitrd-skip / rdpenalty=1 / psy-rd=1.60 / psy-rdoq=5.00 / no-rd-refine / no-lossless / cbqpoffs=0 / crqpoffs=0 / rc=abr / bitrate=20000 / qcomp=0.75 / qpstep=4 / stats-write=0 / stats-read=0 / vbv-maxrate=24000 / vbv-bufsize=40000 / vbv-init=0.9 / ipratio=1.40 / pbratio=1.30 / aq-mode=3 / aq-strength=1.00 / no-cutree / zone-count=0 / no-strict-cbr / qg-size=32 / no-rc-grain / qpmax=69 / qpmin=0 / no-const-vbv / sar=1 / overscan=0 / videoformat=5 / range=0 / colorprim=1 / transfer=1 / colormatrix=1 / chromaloc=0 / display-window=0 / cll=0,0 / min-luma=0 / max-luma=255 / log2-max-poc-lsb=8 / vui-timing-info / vui-hrd-info / slices=1 / no-opt-qp-pps / no-opt-ref-list-length-pps / no-multi-pass-opt-rps / scenecut-bias=0.00 / hist-threshold=0.01 / no-opt-cu-delta-qp / no-aq-motion / no-hdr10 / no-hdr10-opt / no-dhdr10-opt / no-idr-recovery-sei / analysis-reuse-level=0 / analysis-save-reuse-level=0 / analysis-load-reuse-level=0 / scale-factor=0 / refine-intra=0 / refine-inter=0 / refine-mv=1 / refine-ctu-distortion=0 / no-limit-sao / ctu-info=0 / no-lowpass-dct / refine-analysis-type=0 / copy-pic=1 / max-ausize-factor=1.0 / no-dynamic-refine / no-single-sei / no-hevc-aq / no-svt / no-field / qp-adaptation-range=1.00 / no-scenecut-aware-qpconformance-window-offsets / right=0 / bottom=0
Default                        : Yes
Forced                         : No
Color range                    : Limited
Color primaries                : BT.709
Transfer characteristics       : BT.709
Matrix coefficients            : BT.709

Audio
ID                             : 2
Format                         : E-AC-3 JOC
Format/Info                    : Enhanced AC-3 with Joint Object Coding
Commercial name                : Dolby Digital Plus with Dolby Atmos
Codec ID                       : A_EAC3
Duration                       : 10 min 36 s
Bit rate mode                  : Constant
Bit rate                       : 768 kb/s
Channel(s)                     : 6 channels
Channel layout                 : L R C LFE Ls Rs
Sampling rate                  : 48.0 kHz
Frame rate                     : 31.250 FPS (1536 SPF)
Compression mode               : Lossy
Delay relative to video        : 29 ms
Stream size                    : 58.2 MiB (4%)
Language                       : English
Service kind                   : Complete Main
Default                        : Yes
Forced                         : No
Complexity index               : 16
Number of dynamic objects      : 15
Bed channel count              : 1 channel
Bed channel configuration      : LFE

Text #1
ID                             : 3
Format                         : UTF-8
Codec ID                       : S_TEXT/UTF8
Codec ID/Info                  : UTF-8 Plain Text
Duration                       : 10 min 20 s
Bit rate                       : 100 b/s
Frame rate                     : 0.348 FPS
Count of elements              : 216
Stream size                    : 7.62 KiB (0%)
Language                       : English
Default                        : No
Forced                         : No

Text #2
ID                             : 4
Format                         : UTF-8
Codec ID                       : S_TEXT/UTF8
Codec ID/Info                  : UTF-8 Plain Text
Duration                       : 10 min 26 s
Bit rate                       : 110 b/s
Frame rate                     : 0.380 FPS
Count of elements              : 238
Stream size                    : 8.48 KiB (0%)
Title                          : SDH
Language                       : English
Default                        : No
Forced                         : No

Text #3
ID                             : 5
Format                         : UTF-8
Codec ID                       : S_TEXT/UTF8
Codec ID/Info                  : UTF-8 Plain Text
Duration                       : 10 min 27 s
Bit rate                       : 86 b/s
Frame rate                     : 0.330 FPS
Count of elements              : 207
Stream size                    : 6.65 KiB (0%)
Language                       : Czech
Default                        : No
Forced                         : No

Text #4
ID                             : 6
Format                         : UTF-8
Codec ID                       : S_TEXT/UTF8
Codec ID/Info                  : UTF-8 Plain Text
Duration                       : 10 min 27 s
Bit rate                       : 89 b/s
Frame rate                     : 0.328 FPS
Count of elements              : 206
Stream size                    : 6.89 KiB (0%)
Language                       : Danish
Default                        : No
Forced                         : No

Text #5
ID                             : 7
Format                         : UTF-8
Codec ID                       : S_TEXT/UTF8
Codec ID/Info                  : UTF-8 Plain Text
Duration                       : 10 min 28 s
Bit rate                       : 80 b/s
Frame rate                     : 0.317 FPS
Count of elements              : 199
Stream size                    : 6.20 KiB (0%)
Language                       : German
Default                        : No
Forced                         : No

Text #6
ID                             : 8
Format                         : UTF-8
Codec ID                       : S_TEXT/UTF8
Codec ID/Info                  : UTF-8 Plain Text
Duration                       : 10 min 27 s
Bit rate                       : 138 b/s
Frame rate                     : 0.303 FPS
Count of elements              : 190
Stream size                    : 10.6 KiB (0%)
Language                       : Greek
Default                        : No
Forced                         : No

Text #7
ID                             : 9
Format                         : UTF-8
Codec ID                       : S_TEXT/UTF8
Codec ID/Info                  : UTF-8 Plain Text
Duration                       : 10 min 27 s
Bit rate                       : 91 b/s
Frame rate                     : 0.330 FPS
Count of elements              : 207
Stream size                    : 7.01 KiB (0%)
Title                          : Spanish (Latin America)
Language                       : Spanish
Default                        : No
Forced                         : No

Text #8
ID                             : 10
Format                         : UTF-8
Codec ID                       : S_TEXT/UTF8
Codec ID/Info                  : UTF-8 Plain Text
Duration                       : 10 min 27 s
Bit rate                       : 88 b/s
Frame rate                     : 0.328 FPS
Count of elements              : 206
Stream size                    : 6.79 KiB (0%)
Title                          : Spanish (Spain)
Language                       : Spanish
Default                        : No
Forced                         : No

Text #9
ID                             : 11
Format                         : UTF-8
Codec ID                       : S_TEXT/UTF8
Codec ID/Info                  : UTF-8 Plain Text
Duration                       : 10 min 27 s
Bit rate                       : 87 b/s
Frame rate                     : 0.319 FPS
Count of elements              : 200
Stream size                    : 6.67 KiB (0%)
Language                       : Finnish
Default                        : No
Forced                         : No

Text #10
ID                             : 12
Format                         : UTF-8
Codec ID                       : S_TEXT/UTF8
Codec ID/Info                  : UTF-8 Plain Text
Duration                       : 10 min 20 s
Bit rate                       : 78 b/s
Frame rate                     : 0.297 FPS
Count of elements              : 184
Stream size                    : 5.96 KiB (0%)
Title                          : French (Canada)
Language                       : French
Default                        : No
Forced                         : No

Text #11
ID                             : 13
Format                         : UTF-8
Codec ID                       : S_TEXT/UTF8
Codec ID/Info                  : UTF-8 Plain Text
Duration                       : 10 min 28 s
Bit rate                       : 79 b/s
Frame rate                     : 0.293 FPS
Count of elements              : 184
Stream size                    : 6.07 KiB (0%)
Title                          : French (France)
Language                       : French
Default                        : No
Forced                         : No

Text #12
ID                             : 14
Format                         : UTF-8
Codec ID                       : S_TEXT/UTF8
Codec ID/Info                  : UTF-8 Plain Text
Duration                       : 10 min 27 s
Bit rate                       : 93 b/s
Frame rate                     : 0.328 FPS
Count of elements              : 206
Stream size                    : 7.15 KiB (0%)
Language                       : Hungarian
Default                        : No
Forced                         : No

Text #13
ID                             : 15
Format                         : UTF-8
Codec ID                       : S_TEXT/UTF8
Codec ID/Info                  : UTF-8 Plain Text
Duration                       : 10 min 27 s
Bit rate                       : 80 b/s
Frame rate                     : 0.301 FPS
Count of elements              : 189
Stream size                    : 6.15 KiB (0%)
Language                       : Italian
Default                        : No
Forced                         : No

Text #14
ID                             : 16
Format                         : UTF-8
Codec ID                       : S_TEXT/UTF8
Codec ID/Info                  : UTF-8 Plain Text
Duration                       : 10 min 25 s
Bit rate                       : 72 b/s
Frame rate                     : 0.305 FPS
Count of elements              : 191
Stream size                    : 5.57 KiB (0%)
Language                       : Japanese
Default                        : No
Forced                         : No

Text #15
ID                             : 17
Format                         : UTF-8
Codec ID                       : S_TEXT/UTF8
Codec ID/Info                  : UTF-8 Plain Text
Duration                       : 10 min 27 s
Bit rate                       : 91 b/s
Frame rate                     : 0.330 FPS
Count of elements              : 207
Stream size                    : 7.05 KiB (0%)
Language                       : Korean
Default                        : No
Forced                         : No

Text #16
ID                             : 18
Format                         : UTF-8
Codec ID                       : S_TEXT/UTF8
Codec ID/Info                  : UTF-8 Plain Text
Duration                       : 10 min 27 s
Bit rate                       : 69 b/s
Frame rate                     : 0.279 FPS
Count of elements              : 175
Stream size                    : 5.32 KiB (0%)
Language                       : Dutch
Default                        : No
Forced                         : No

Text #17
ID                             : 19
Format                         : UTF-8
Codec ID                       : S_TEXT/UTF8
Codec ID/Info                  : UTF-8 Plain Text
Duration                       : 10 min 27 s
Bit rate                       : 84 b/s
Frame rate                     : 0.330 FPS
Count of elements              : 207
Stream size                    : 6.44 KiB (0%)
Language                       : Norwegian
Default                        : No
Forced                         : No

Text #18
ID                             : 20
Format                         : UTF-8
Codec ID                       : S_TEXT/UTF8
Codec ID/Info                  : UTF-8 Plain Text
Duration                       : 10 min 27 s
Bit rate                       : 85 b/s
Frame rate                     : 0.330 FPS
Count of elements              : 207
Stream size                    : 6.55 KiB (0%)
Language                       : Polish
Default                        : No
Forced                         : No

Text #19
ID                             : 21
Format                         : UTF-8
Codec ID                       : S_TEXT/UTF8
Codec ID/Info                  : UTF-8 Plain Text
Duration                       : 10 min 27 s
Bit rate                       : 86 b/s
Frame rate                     : 0.330 FPS
Count of elements              : 207
Stream size                    : 6.63 KiB (0%)
Title                          : Portuguese (Brazil)
Language                       : Portuguese
Default                        : No
Forced                         : No

Text #20
ID                             : 22
Format                         : UTF-8
Codec ID                       : S_TEXT/UTF8
Codec ID/Info                  : UTF-8 Plain Text
Duration                       : 10 min 27 s
Bit rate                       : 92 b/s
Frame rate                     : 0.330 FPS
Count of elements              : 207
Stream size                    : 7.09 KiB (0%)
Title                          : Portuguese (Portugal)
Language                       : Portuguese
Default                        : No
Forced                         : No

Text #21
ID                             : 23
Format                         : UTF-8
Codec ID                       : S_TEXT/UTF8
Codec ID/Info                  : UTF-8 Plain Text
Duration                       : 10 min 27 s
Bit rate                       : 96 b/s
Frame rate                     : 0.330 FPS
Count of elements              : 207
Stream size                    : 7.41 KiB (0%)
Language                       : Romanian
Default                        : No
Forced                         : No

Text #22
ID                             : 24
Format                         : UTF-8
Codec ID                       : S_TEXT/UTF8
Codec ID/Info                  : UTF-8 Plain Text
Duration                       : 10 min 27 s
Bit rate                       : 77 b/s
Frame rate                     : 0.298 FPS
Count of elements              : 187
Stream size                    : 5.96 KiB (0%)
Language                       : Slovak
Default                        : No
Forced                         : No

Text #23
ID                             : 25
Format                         : UTF-8
Codec ID                       : S_TEXT/UTF8
Codec ID/Info                  : UTF-8 Plain Text
Duration                       : 10 min 27 s
Bit rate                       : 87 b/s
Frame rate                     : 0.330 FPS
Count of elements              : 207
Stream size                    : 6.68 KiB (0%)
Language                       : Swedish
Default                        : No
Forced                         : No

Text #24
ID                             : 26
Format                         : UTF-8
Codec ID                       : S_TEXT/UTF8
Codec ID/Info                  : UTF-8 Plain Text
Duration                       : 10 min 27 s
Bit rate                       : 91 b/s
Frame rate                     : 0.328 FPS
Count of elements              : 206
Stream size                    : 7.04 KiB (0%)
Language                       : Turkish
Default                        : No
Forced                         : No

Text #25
ID                             : 27
Format                         : UTF-8
Codec ID                       : S_TEXT/UTF8
Codec ID/Info                  : UTF-8 Plain Text
Duration                       : 10 min 27 s
Bit rate                       : 75 b/s
Frame rate                     : 0.330 FPS
Count of elements              : 207
Stream size                    : 5.79 KiB (0%)
Title                          : Chinese (Hong Kong SAR China)
Language                       : Chinese
Default                        : No
Forced                         : No

Text #26
ID                             : 28
Format                         : UTF-8
Codec ID                       : S_TEXT/UTF8
Codec ID/Info                  : UTF-8 Plain Text
Duration                       : 10 min 27 s
Bit rate                       : 80 b/s
Frame rate                     : 0.330 FPS
Count of elements              : 207
Stream size                    : 6.17 KiB (0%)
Title                          : Chinese (Simplified)
Language                       : Chinese
Default                        : No
Forced                         : No

Text #27
ID                             : 29
Format                         : UTF-8
Codec ID                       : S_TEXT/UTF8
Codec ID/Info                  : UTF-8 Plain Text
Duration                       : 10 min 27 s
Bit rate                       : 74 b/s
Frame rate                     : 0.330 FPS
Count of elements              : 207
Stream size                    : 5.72 KiB (0%)
Title                          : Chinese (Traditional)
Language                       : Chinese
Default                        : No
Forced                         : No

蓝光高清网提示您 点击下方附件名称 即可开始下载

赛车总动员:公路旅行 Cars.on.the.Road.S01.Trucks.REPACK.2160p.WEB-DL.DDP5.1.H.265-NTb 4k动画片下载

赛车总动员:公路旅行 Cars.on.the.Road.S01.Trucks.REPACK.2160p.WEB-DL.DDP5.1.H.265-NTb 【10.93GB】

Cars.on.the.Road.S01.Tru....WEB-DL.DDP5.1.H.265-NTb.txt ( 235 Bytes )


加入蓝光高清网VIP会员  无限制下载本站所有资源---点这里

资源下载、资源播放、字幕使用、无法下载等常见问题---点这里
回复

使用道具 举报

全部回复1 显示全部楼层
1080i 发表于 2023-1-27 01:27:33 | 显示全部楼层
T.h.a.n.k.s
回复

使用道具 举报

发表回复

您需要登录后才可以回帖 登录 | 立即注册

本版积分规则