本站已运行

蓝光高清网

搜索

熊盖毒(台) / 大毒BEAR(港)/熊嗨了4K Cocaine.Bear.2023.2160p.WEB-DL.x265.10bit.HDR10Plus.DDP5.1.Atmos-4k电影下载

蓝鸟 发表于 2023-3-14 20:40:25 | 显示全部楼层 |阅读模式
熊嗨了 (2023) 豆瓣评分: 6.2分
时长:95 分钟
地区:美国 
类型:喜剧 惊悚 
画质:4K HDR 
帧率:
音轨:Dolby TrueHD 5.1 
导演:伊丽莎白·班克斯
主演:凯丽·拉塞尔 / 阿尔登·埃伦瑞奇 / 小奥谢拉·杰克逊 / 雷·利奥塔 / 小伊塞亚·维特洛克
  • 电影下载
  • 影片简介
  • 影片参数
  • 下载说明
  • 《熊嗨了》网盘资源  Cloud storage download


    访问密码
      
    中文字幕


    《熊嗨了》BT 下载 推荐使用【迅雷云盘离线下载】【比特彗星】下载
  • 《熊嗨了》剧情简介 Film Introduction
      讲述一群警察、罪犯、游客和青少年全都聚集在美国乔治亚州的一座树林,树林中有一只将近230公斤重的顶级掠食者黑熊,吞食了一大堆可卡因,导致它野性大发、大开杀戒,血流成河。
      故事灵感来自发生在1985年的真实事件,一名毒贩的飞机失事坠机,遗失了一批可卡因,结果被一只黑熊吃掉。


    《熊嗨了》BT 下载 推荐使用【迅雷云盘离线下载】【比特彗星】下载
  • 《熊嗨了》影片INFO Video INFO
    熊盖毒(台) / 大毒BEAR(港)/熊嗨了4K Cocaine.Bear.2023.2160p.WEB-DL.x265.10bit.HDR10Plus.DDP5.1.Atmos-4k电影资源信息
    Video
    ID : 1
    Format : HEVC
    Format/Info : High Efficiency Video Coding
    Format profile : Main 10@L5@High
    HDR format : Dolby Vision, Version 1.0, dvhe.08.06, BL+RPU, HDR10 compatible / SMPTE ST 2094 App 4, Version 1, HDR10+ Profile B compatible
    Codec ID : V_MPEGH/ISO/HEVC
    Duration : 1 h 35 min
    Bit rate : 24.3 Mb/s
    Width : 3 836 pixels
    Height : 1 602 pixels
    Display aspect ratio : 2.40:1
    Frame rate mode : Constant
    Frame rate : 23.976 (24000/1001) FPS
    Color space : YUV
    Chroma subsampling : 4:2:0 (Type 2)
    Bit depth : 10 bits
    Bits/(Pixel*Frame) : 0.165
    Stream size : 16.2 GiB (97%)
    Language : English (US)
    Default : Yes
    Forced : No
    Color range : Limited
    Color primaries : BT.2020
    Transfer characteristics : PQ
    Matrix coefficients : BT.2020 non-constant
    Mastering display color primaries : Display P3
    Mastering display luminance : min: 0.0050 cd/m2, max: 4000 cd/m2
    Maximum Content Light Level : 461 cd/m2
    Maximum Frame-Average Light Level : 305 cd/m2


    Audio
    ID : 2
    Format : E-AC-3 JOC
    Format/Info : Enhanced AC-3 with Joint Object Coding
    Commercial name : Dolby Digital Plus with Dolby Atmos
    Codec ID : A_EAC3
    Duration : 1 h 35 min
    Bit rate mode : Constant
    Bit rate : 768 kb/s
    Channel(s) : 6 channels
    Channel layout : L R C LFE Ls Rs
    Sampling rate : 48.0 kHz
    Frame rate : 31.250 FPS (1536 SPF)
    Compression mode : Lossy
    Stream size : 525 MiB (3%)
    Language : English (US)
    Service kind : Complete Main
    Default : Yes
    Forced : No
    Complexity index : 16
    Number of dynamic objects : 15
    Bed channel count : 1 channel
    Bed channel configuration : LFE


    Text #1
    ID : 3
    Format : UTF-8
    Codec ID : S_TEXT/UTF8
    Codec ID/Info : UTF-8 Plain Text
    Duration : 1 h 30 min
    Bit rate : 58 b/s
    Frame rate : 0.290 FPS
    Count of elements : 1585
    Stream size : 39.1 KiB (0%)
    Language : English (US)
    Default : No
    Forced : No


    Text #2
    ID : 4
    Format : UTF-8
    Codec ID : S_TEXT/UTF8
    Codec ID/Info : UTF-8 Plain Text
    Duration : 1 h 35 min
    Bit rate : 67 b/s
    Frame rate : 0.337 FPS
    Count of elements : 1931
    Stream size : 47.4 KiB (0%)
    Title : SDH
    Language : English (US)
    Default : No
    Forced : No


    Text #3
    ID : 5
    Format : UTF-8
    Codec ID : S_TEXT/UTF8
    Codec ID/Info : UTF-8 Plain Text
    Duration : 1 h 34 min
    Bit rate : 52 b/s
    Frame rate : 0.238 FPS
    Count of elements : 1347
    Stream size : 36.2 KiB (0%)
    Title : Latin American
    Language : Spanish (Latin America)
    Default : No
    Forced : No


    Text #4
    ID : 6
    Format : UTF-8
    Codec ID : S_TEXT/UTF8
    Codec ID/Info : UTF-8 Plain Text
    Duration : 1 h 34 min
    Bit rate : 51 b/s
    Frame rate : 0.235 FPS
    Count of elements : 1333
    Stream size : 35.6 KiB (0%)
    Title : Canadian
    Language : French (CA)
    Default : No
    Forced : No


    Menu
    00:00:00.000 : en:Chapter 01
    00:06:52.912 : en:Chapter 02
    00:09:20.810 : en:Chapter 03
    00:13:01.448 : en:Chapter 04
    00:16:25.026 : en:Chapter 05
    00:18:46.334 : en:Chapter 06
    00:23:40.503 : en:Chapter 07
    00:27:50.211 : en:Chapter 08
    00:33:36.307 : en:Chapter 09
    00:41:30.156 : en:Chapter 10
    00:48:01.798 : en:Chapter 11
    00:55:22.197 : en:Chapter 12
    00:59:56.179 : en:Chapter 13
    01:04:03.176 : en:Chapter 14
    01:07:43.438 : en:Chapter 15
    01:12:58.294 : en:Chapter 16
    01:16:36.971 : en:Chapter 17
    01:21:54.330 : en:Chapter 18
    01:26:33.193 : en:Chapter 19
    01:29:30.495 : en:Chapter 20



    BT 下载 推荐使用【迅雷云盘离线下载】【比特彗星】下载
  • 下载电影三步骤
    1、在《4K电影列表》找到并打开电影详情页,点击BT种子文件或复制磁力链,将BT种子下载到电脑中。
    2、电脑安装《BT下载软件》,免费的推荐使用《UTorrent》下载,收费的推荐使用《115网盘》下载(速度又快又稳).
    3、用BT下载软件,打开BT种子、或将磁力链复制粘贴到BT软件中即可下载。


    本站4K电影版块资源99%是真4K,都是从UHD蓝光碟片中提取而来!本站未发布的4K资源,全网都没有(除非假4K),所以发帖求资源也没用。

    下载速度慢怎么办
    1、正常情况使用《UTorrent》跟着网站发布资源节奏下载速度很快,可以达到宽带最大速度(电信)
    2、推荐使用《115网盘》下载速度又快又稳定,请勿使用迅雷下载;
    3、下载慢是有多方面原因,即依赖种子的热度、也要求是电信宽带(非移动/联通),同时选择对的下载软件和软件设置方法。
    4、使用BT协议下载没有速度,请更新《Trackers服务器》能够增加在线用户(越多越好),该方法使用《UTorrent》下载效果显著。
    更多下载问题参考: 4K电影下载新手学院>>

    多个种子/电影版本区别
    蓝光原盘BDMV
    俗称4K蓝光原盘,也就是从4K UHD蓝光碟中提取出来的源文件,由多个m2ts文件组成,与正版盘完全一致,且包含了光盘所有内容 (影片花絮、字幕、导航菜单、多语言多音轨、HDR 信息)等等,文件体积大,一部电影约有60GB+。此版本资源一般以「BDMV 文件夹」或「BDISO」 (iso) 格式发布;该版本可以用刻录机成带导航的光盘效果。

    DIY蓝光原盘BDMV
    经资源制作组基于蓝光原盘BDMV版本进行第二次DIY的版本,将片头AE特效、画面HDR调色、封装国语音轨、封装中文简体/繁体/英文等多语言字幕,更精彩的是是特效字幕(将电影画面中某些细节翻译成中文字幕)。

    蓝光BD-REMUX
    俗称REMUX,可以视为「音画质无损的精简版」"4K原盘",它其实就是将原盘里多余的一些音轨、花絮、菜单、字幕等东西移除或精简,仅保留主要的视频、主要音轨和部分语言字幕,然后再封装成「单个文件」的 .mkv 格式而来,其音质画质与BDMV蓝光原盘一致,但文件体积上能大幅缩减且成单个文件,在电脑上播放/管理/电视播放/播放器播放和分享起来也更方便。适合追求原盘音画质、不重视花絮周边内容、又希望稍微节省点硬盘空间的朋友。

    WEB-DL/WEBRip/流媒体版本
    WEB-DL 或 WEBRip 格式的影片主要来自 、Amazon Prime Video、Netflix、Hulu、YouTube 等「在线网络高清片源」。尽管这些服务提供了4K分辨率 (部分含 HDR) 的片源,但它们为了在线观看的流畅性,都会将视频画质进行较大幅度「有损压缩」。 WEB-DL 是 Web Download 的意思,指通过技术手段「直接下载」回来的在线视频 WEBRip 很多时候则是通过"屏幕转录"等方式二次录制,会造成多一次的画质损失。



    BT 下载 推荐使用【迅雷云盘离线下载】【比特彗星】下载
熊盖毒(台) / 大毒BEAR(港)/熊嗨了4K Cocaine.Bear.2023.2160p.WEB-DL.x265.10bit.HDR10Plus.DDP5.1.Atmos-4k电影资源下载

熊嗨了4K Cocaine.Bear.2023.2160p.WEB-DL.x265.10bit.HDR10Plus.DDP5.1.Atmos【HDR10Plus 16.69 GB】

熊嗨了4K Cocaine.Bear.2023.2160p.WEB-DL.x265.10bit.HDR10Plus.DDP5.1.Atmos-CM.torrent ( 21.53 KB )



嗨了4K Cocaine.Bear.2023.2160p.AMZN.WEB-DL.x265.8bit.SDR.DDP5.1.Atmos【SDR 10.47 GB】

熊嗨了4K Cocaine.Bear.2023.2160p.AMZN.WEB-DL.x265.8bit.SDR.DDP5.1.Atmos-CM.torrent ( 13.75 KB )



嗨了4K Cocaine.Bear.2023.2160p.WEB-DL.DDP5.1.Atmos.DV.MKV.x265【杜比视界 10.08 GB】

熊嗨了4K Cocaine.Bear.2023.2160p.WEB-DL.DDP5.1.Atmos.DV.MKV.x265-CM.torrent ( 13.23 KB )



嗨了4K Cocaine.Bear.2023.2160p.WEB-DL.DDP5.1.Atmos.DV.MP4.x26【杜比视界 10.08 GB】

熊嗨了4K Cocaine.Bear.2023.2160p.WEB-DL.DDP5.1.Atmos.DV.MP4.x265-DVSUX.torrent ( 13.24 KB )



加入蓝光高清网VIP会员  无限制下载本站所有资源---点这里

资源下载、资源播放、字幕使用、无法下载等常见问题---点这里
回复

使用道具 举报

全部回复4 显示全部楼层
dongshouba手机认证 发表于 2023-3-15 00:55:44 | 显示全部楼层
感谢分享
回复

使用道具 举报

szc169 发表于 2023-3-17 09:10:04 | 显示全部楼层
感谢楼主分享!!!
回复 支持 反对

使用道具 举报

gdlmxia 发表于 2023-3-17 10:26:19 | 显示全部楼层
太好啦&萬分感謝版主的無私發佈分享%
回复 支持 反对

使用道具 举报

1080i 发表于 2023-3-19 05:01:39 | 显示全部楼层
T.h.a.n.k.s
回复

使用道具 举报

发表回复

您需要登录后才可以回帖 登录 | 立即注册

本版积分规则

开通会员 帮助中心 返回顶部 返回列表