本站已运行

蓝光高清网

搜索

[剧情] 尼克·赫扎德的朋友.Nick.the.Sting.1976.1080p.BluRay.x264-FREEMAN 9.25GB

蓝鸟 发表于 2023-3-18 12:18:20 | 显示全部楼层 |阅读模式

尼克·赫扎德的朋友.Nick.the.Sting.1976.1080p.BluRay.x264-FREEMAN 9.25GB

尼克·赫扎德的朋友.Nick.the.Sting.1976.1080p.BluRay.x264-FREEMAN 9.25GB


译  名 尼克·赫扎德的朋友 / Nick the Sting
片  名 Gli amici di Nick Hezard
年  代 1976
产  地 意大利
类  别 剧情 / 犯罪
语  言 意大利语
上映日期 1976
IMDb评星  ★★★★★★☆☆☆☆
IMDb评分  6.0/10 from 244 users
片  长 93分钟(网络版)
导  演 费尔南多·迪·莱沃 / Fernando Di Leo
演  员 Pietro Ceccarelli Pietro Ceccarelli
      Dori Dorika Dori Dorika
      妲歌玛·拉桑德 / Dagmar Lassander
      吕克·米朗德 / Luc Merenda
      马里奥·皮苏 / Mario Pisu
      多梅尼科·鄂拿博纳 / Franco Ressel
      Umberto Raho Umberto Raho
      Gio Staiano Gio Staiano
      费尔南多·杰鲁尼 / Fernando Cerulli
      罗萨里奥·博雷利 / Rosario Borelli
      伊莎贝拉·毕耶缀妮 / Isabella Biagini
      瓦伦蒂娜·格特斯 / Valentina Cortese
      费尔南多·迪·莱沃 / Fernando Di Leo
      Marco Guglielmi Marco Guglielmi
      卢仙娜·帕鲁兹 / Luciana Paluzzi
      威廉姆·伯格 / William Berger
      加布里埃尔·费泽蒂 / Gabriele Ferzetti
      李·科布 / Lee J. Cobb
      Sergio Ammirata Sergio Ammirata
      弗莱德.威廉姆斯 / Fred Williams
音  乐 路易斯·巴卡洛夫 / Luis Enríquez Bacalov
摄  影 Roberto Gerardi Roberto Gerardi
服  装 Giulia Mafai Giulia Mafai

影片参数
  1. Video
  2. ID : 1
  3. Format : AVC
  4. Format/Info : Advanced Video Codec
  5. Format profile : [email protected]
  6. Format settings : CABAC / 4 Ref Frames
  7. Format settings, CABAC : Yes
  8. Format settings, Reference frames : 4 frames
  9. Codec ID : V_MPEG4/ISO/AVC
  10. Duration : 1 h 37 min
  11. Bit rate : 13.3 Mb/s
  12. Width : 1 920 pixels
  13. Height : 1 044 pixels
  14. Display aspect ratio : 1.85:1
  15. Frame rate mode : Constant
  16. Frame rate : 24.000 FPS
  17. Color space : YUV
  18. Chroma subsampling : 4:2:0
  19. Bit depth : 8 bits
  20. Scan type : Progressive
  21. Bits/(Pixel*Frame) : 0.277
  22. Stream size : 9.06 GiB (98%)
  23. Writing library : x264 core 164 r3106 eaa68fa
  24. Encoding settings : cabac=1 / ref=4 / deblock=1:-3:-3 / analyse=0x3:0x133 / me=umh / subme=9 / psy=1 / psy_rd=1.00:0.00 / mixed_ref=1 / me_range=16 / chroma_me=1 / trellis=2 / 8x8dct=1 / cqm=0 / deadzone=21,11 / fast_pskip=0 / chroma_qp_offset=-2 / threads=24 / lookahead_threads=2 / sliced_threads=0 / nr=0 / decimate=1 / interlaced=0 / bluray_compat=0 / constrained_intra=0 / bframes=3 / b_pyramid=2 / b_adapt=2 / b_bias=0 / direct=3 / weightb=1 / open_gop=0 / weightp=2 / keyint=250 / keyint_min=24 / scenecut=40 / intra_refresh=0 / rc_lookahead=60 / rc=crf / mbtree=1 / crf=17.0 / qcomp=0.60 / qpmin=0 / qpmax=69 / qpstep=4 / ip_ratio=1.40 / aq=3:0.60
  25. Default : Yes
  26. Forced : No
  27. Color range : Limited
  28. Matrix coefficients : BT.709
  29. Audio
  30. ID : 2
  31. Format : FLAC
  32. Format/Info : Free Lossless Audio Codec
  33. Codec ID : A_FLAC
  34. Duration : 1 h 37 min
  35. Bit rate mode : Variable
  36. Bit rate : 245 kb/s
  37. Channel(s) : 2 channels
  38. Channel layout : L R
  39. Sampling rate : 48.0 kHz
  40. Frame rate : 11.719 FPS (4096 SPF)
  41. Bit depth : 16 bits
  42. Compression mode : Lossless
  43. Stream size : 170 MiB (2%)
  44. Writing library : libFLAC 1.2.1 (UTC 2007-09-17)
  45. Language : Italian
  46. Default : Yes
  47. Forced : No
  48. Text #1
  49. ID : 3
  50. Format : UTF-8
  51. Codec ID : S_TEXT/UTF8
  52. Codec ID/Info : UTF-8 Plain Text
  53. Duration : 1 h 35 min
  54. Bit rate : 59 b/s
  55. Count of elements : 1140
  56. Stream size : 41.7 KiB (0%)
  57. Language : English
  58. Default : Yes
  59. Forced : Yes
  60. Text #2
  61. ID : 4
  62. Format : PGS
  63. Muxing mode : zlib
  64. Codec ID : S_HDMV/PGS
  65. Codec ID/Info : Picture based subtitle format used on BDs/HD-DVDs
  66. Duration : 1 h 35 min
  67. Bit rate : 27.5 kb/s
  68. Count of elements : 2248
  69. Stream size : 18.8 MiB (0%)
  70. Language : English
  71. Default : No
  72. Forced : No
  73. Text #3
  74. ID : 5
  75. Format : PGS
  76. Muxing mode : zlib
  77. Codec ID : S_HDMV/PGS
  78. Codec ID/Info : Picture based subtitle format used on BDs/HD-DVDs
  79. Duration : 1 h 35 min
  80. Bit rate : 32.3 kb/s
  81. Count of elements : 2302
  82. Stream size : 22.1 MiB (0%)
  83. Language : German
  84. Default : No
  85. Forced : No
  86. Menu
  87. 00:00:00.000 : 00:00:00.000
  88. 00:15:36.333 : 00:15:36.333
  89. 00:30:05.500 : 00:30:05.500
  90. 00:47:58.500 : 00:47:58.500
  91. 01:05:55.042 : 01:05:55.042
  92. 01:22:57.833 : 01:22:57.833
复制代码

尼克·赫扎德的朋友.Nick.the.Sting.1976.1080p.BluRay.x264-FREEMAN 9.25GB

尼克·赫扎德的朋友.Nick.the.Sting.1976.1080p.BluRay.x264-FREEMAN 9.25GB



蓝光高清网提示您 点击下方附件即可下载

尼克·赫扎德的朋友.Nick.the.Sting.1976.1080p.BluRay.x264-FREEMAN 9.25GB

Nick.the.Sting.1976.1080p.BluRay.x264-FREEMAN.torrent ( 23.81 KB )

加入蓝光高清网VIP会员  无限制下载本站所有资源---点这里

资源下载、资源播放、字幕使用、无法下载等常见问题---点这里
回复

使用道具 举报

全部回复0 显示全部楼层

发表回复

您需要登录后才可以回帖 登录 | 立即注册

本版积分规则

开通会员 帮助中心 返回顶部 返回列表