本站已运行

蓝光高清网

搜索
开启左侧

The.Three.Wise.Men.The.Truth.2022.SPANISH.2160p.AMZN.WEB-DL.x265.10bit.HDR10Plus.DDP5.1-4K电影

蓝鸟 发表于 2023-3-18 17:43:46 | 显示全部楼层 |阅读模式
The.Three.Wise.Men.The.Truth. 豆瓣评分: 无评分
上映时间:2022年        影片时长:77分钟
类型:喜剧 
地区:日本 
导演:Víctor García León
主演:无
画质标准:4K  封装音轨:Dolby TrueHD 5.1 
简       介

         While they prepare for the Three Wise Men\'s Cavalcade, Melchior, Gaspar and Balthazar open the doors to their palace for the first time for the filming of a documentary about their daily lives.

影片参数
The.Three.Wise.Men.The.Truth.2022.SPANISH.2160p.AMZN.WEB-DL.x265.10bit.HDR10Plus.DDP5.1-电影信息
Video
ID : 1
Format : HEVC
Format/Info : High Efficiency Video Coding
Format profile : Main 10@L5@Main
HDR format : SMPTE ST 2094 App 4, Version 1, HDR10+ Profile B compatible
Codec ID : V_MPEGH/ISO/HEVC
Duration : 1 h 17 min
Bit rate : 14.8 Mb/s
Width : 3 840 pixels
Height : 1 920 pixels
Display aspect ratio : 2.000
Frame rate mode : Constant
Frame rate : 25.000 FPS
Color space : YUV
Chroma subsampling : 4:2:0
Bit depth : 10 bits
Bits/(Pixel*Frame) : 0.080
Stream size : 8.05 GiB (96%)
Language : Spanish (ES)
Default : Yes
Forced : No
Color range : Limited
Color primaries : BT.2020
Transfer characteristics : PQ
Matrix coefficients : BT.2020 non-constant
Mastering display color primaries : Display P3
Mastering display luminance : min: 0.0001 cd/m2, max: 1000 cd/m2
Maximum Content Light Level : 663 cd/m2
Maximum Frame-Average Light Level : 186 cd/m2


Audio
ID : 2
Format : E-AC-3
Format/Info : Enhanced AC-3
Commercial name : Dolby Digital Plus
Codec ID : A_EAC3
Duration : 1 h 17 min
Bit rate mode : Constant
Bit rate : 640 kb/s
Channel(s) : 6 channels
Channel layout : L R C LFE Ls Rs
Sampling rate : 48.0 kHz
Frame rate : 31.250 FPS (1536 SPF)
Compression mode : Lossy
Stream size : 356 MiB (4%)
Language : Spanish (ES)
Service kind : Complete Main
Default : Yes
Forced : No


Text #1
ID : 3
Format : UTF-8
Codec ID : S_TEXT/UTF8
Codec ID/Info : UTF-8 Plain Text
Duration : 9 s 480 ms
Bit rate : 92 b/s
Frame rate : 0.211 FPS
Count of elements : 2
Stream size : 110 Bytes (0%)
Title : Forced
Language : Spanish (ES)
Default : Yes
Forced : Yes


Text #2
ID : 4
Format : UTF-8
Codec ID : S_TEXT/UTF8
Codec ID/Info : UTF-8 Plain Text
Duration : 1 h 17 min
Bit rate : 79 b/s
Frame rate : 0.282 FPS
Count of elements : 1306
Stream size : 45.1 KiB (0%)
Language : Spanish (ES)
Default : No
Forced : No


Text #3
ID : 5
Format : UTF-8
Codec ID : S_TEXT/UTF8
Codec ID/Info : UTF-8 Plain Text
Duration : 1 h 17 min
Bit rate : 83 b/s
Frame rate : 0.289 FPS
Count of elements : 1338
Stream size : 47.4 KiB (0%)
Title : SDH
Language : Spanish (ES)
Default : No
Forced : No


Text #4
ID : 6
Format : UTF-8
Codec ID : S_TEXT/UTF8
Codec ID/Info : UTF-8 Plain Text
Duration : 1 h 17 min
Bit rate : 68 b/s
Frame rate : 0.246 FPS
Count of elements : 1141
Stream size : 38.8 KiB (0%)
Language : English (US)
Default : No
Forced : No


Text #5
ID : 7
Format : UTF-8
Codec ID : S_TEXT/UTF8
Codec ID/Info : UTF-8 Plain Text
Duration : 1 h 17 min
Bit rate : 108 b/s
Frame rate : 0.246 FPS
Count of elements : 1142
Stream size : 61.8 KiB (0%)
Language : Arabic (001)
Default : No
Forced : No


Text #6
ID : 8
Format : UTF-8
Codec ID : S_TEXT/UTF8
Codec ID/Info : UTF-8 Plain Text
Duration : 1 h 17 min
Bit rate : 67 b/s
Frame rate : 0.245 FPS
Count of elements : 1140
Stream size : 38.3 KiB (0%)
Title : European
Language : Catalan (ES)
Default : No
Forced : No


Text #7
ID : 9
Format : UTF-8
Codec ID : S_TEXT/UTF8
Codec ID/Info : UTF-8 Plain Text
Duration : 1 h 17 min
Bit rate : 65 b/s
Frame rate : 0.246 FPS
Count of elements : 1142
Stream size : 37.3 KiB (0%)
Language : Czech (CZ)
Default : No
Forced : No


Text #8
ID : 10
Format : UTF-8
Codec ID : S_TEXT/UTF8
Codec ID/Info : UTF-8 Plain Text
Duration : 1 h 17 min
Bit rate : 67 b/s
Frame rate : 0.246 FPS
Count of elements : 1141
Stream size : 38.0 KiB (0%)
Language : Danish (DK)
Default : No
Forced : No


Text #9
ID : 11
Format : UTF-8
Codec ID : S_TEXT/UTF8
Codec ID/Info : UTF-8 Plain Text
Duration : 1 h 17 min
Bit rate : 64 b/s
Frame rate : 0.245 FPS
Count of elements : 1140
Stream size : 36.9 KiB (0%)
Language : German (DE)
Default : No
Forced : No


Text #10
ID : 12
Format : UTF-8
Codec ID : S_TEXT/UTF8
Codec ID/Info : UTF-8 Plain Text
Duration : 1 h 17 min
Bit rate : 116 b/s
Frame rate : 0.246 FPS
Count of elements : 1142
Stream size : 66.1 KiB (0%)
Language : Greek (GR)
Default : No
Forced : No


Text #11
ID : 13
Format : UTF-8
Codec ID : S_TEXT/UTF8
Codec ID/Info : UTF-8 Plain Text
Duration : 1 h 17 min
Bit rate : 62 b/s
Frame rate : 0.246 FPS
Count of elements : 1142
Stream size : 35.6 KiB (0%)
Title : European
Language : Basque (ES)
Default : No
Forced : No


Text #12
ID : 14
Format : UTF-8
Codec ID : S_TEXT/UTF8
Codec ID/Info : UTF-8 Plain Text
Duration : 1 h 17 min
Bit rate : 63 b/s
Frame rate : 0.243 FPS
Count of elements : 1131
Stream size : 35.8 KiB (0%)
Language : Finnish (FI)
Default : No
Forced : No


Text #13
ID : 15
Format : UTF-8
Codec ID : S_TEXT/UTF8
Codec ID/Info : UTF-8 Plain Text
Duration : 1 h 17 min
Bit rate : 68 b/s
Frame rate : 0.245 FPS
Count of elements : 1138
Stream size : 39.1 KiB (0%)
Language : French (FR)
Default : No
Forced : No


Text #14
ID : 16
Format : UTF-8
Codec ID : S_TEXT/UTF8
Codec ID/Info : UTF-8 Plain Text
Duration : 1 h 17 min
Bit rate : 62 b/s
Frame rate : 0.245 FPS
Count of elements : 1136
Stream size : 35.5 KiB (0%)
Title : European
Language : Galician (ES)
Default : No
Forced : No


Text #15
ID : 17
Format : UTF-8
Codec ID : S_TEXT/UTF8
Codec ID/Info : UTF-8 Plain Text
Duration : 1 h 17 min
Bit rate : 104 b/s
Frame rate : 0.246 FPS
Count of elements : 1142
Stream size : 59.2 KiB (0%)
Language : Hebrew (IL)
Default : No
Forced : No


Text #16
ID : 18
Format : UTF-8
Codec ID : S_TEXT/UTF8
Codec ID/Info : UTF-8 Plain Text
Duration : 1 h 17 min
Bit rate : 69 b/s
Frame rate : 0.246 FPS
Count of elements : 1142
Stream size : 39.3 KiB (0%)
Language : Hungarian (HU)
Default : No
Forced : No


Text #17
ID : 19
Format : UTF-8
Codec ID : S_TEXT/UTF8
Codec ID/Info : UTF-8 Plain Text
Duration : 1 h 17 min
Bit rate : 63 b/s
Frame rate : 0.246 FPS
Count of elements : 1141
Stream size : 36.0 KiB (0%)
Language : Italian (IT)
Default : No
Forced : No


Text #18
ID : 20
Format : UTF-8
Codec ID : S_TEXT/UTF8
Codec ID/Info : UTF-8 Plain Text
Duration : 1 h 17 min
Bit rate : 67 b/s
Frame rate : 0.245 FPS
Count of elements : 1140
Stream size : 38.0 KiB (0%)
Language : Norwegian Bokmal (NO)
Default : No
Forced : No


Text #19
ID : 21
Format : UTF-8
Codec ID : S_TEXT/UTF8
Codec ID/Info : UTF-8 Plain Text
Duration : 1 h 17 min
Bit rate : 65 b/s
Frame rate : 0.246 FPS
Count of elements : 1142
Stream size : 37.3 KiB (0%)
Language : Dutch (NL)
Default : No
Forced : No


Text #20
ID : 22
Format : UTF-8
Codec ID : S_TEXT/UTF8
Codec ID/Info : UTF-8 Plain Text
Duration : 1 h 17 min
Bit rate : 59 b/s
Frame rate : 0.244 FPS
Count of elements : 1133
Stream size : 33.6 KiB (0%)
Language : Polish (PL)
Default : No
Forced : No


Text #21
ID : 23
Format : UTF-8
Codec ID : S_TEXT/UTF8
Codec ID/Info : UTF-8 Plain Text
Duration : 1 h 17 min
Bit rate : 69 b/s
Frame rate : 0.245 FPS
Count of elements : 1140
Stream size : 39.3 KiB (0%)
Language : Portuguese (PT)
Default : No
Forced : No


Text #22
ID : 24
Format : UTF-8
Codec ID : S_TEXT/UTF8
Codec ID/Info : UTF-8 Plain Text
Duration : 1 h 17 min
Bit rate : 66 b/s
Frame rate : 0.246 FPS
Count of elements : 1141
Stream size : 37.6 KiB (0%)
Language : Romanian (RO)
Default : No
Forced : No


Text #23
ID : 25
Format : UTF-8
Codec ID : S_TEXT/UTF8
Codec ID/Info : UTF-8 Plain Text
Duration : 1 h 17 min
Bit rate : 109 b/s
Frame rate : 0.246 FPS
Count of elements : 1142
Stream size : 61.9 KiB (0%)
Language : Russian (RU)
Default : No
Forced : No


Text #24
ID : 26
Format : UTF-8
Codec ID : S_TEXT/UTF8
Codec ID/Info : UTF-8 Plain Text
Duration : 1 h 17 min
Bit rate : 68 b/s
Frame rate : 0.245 FPS
Count of elements : 1140
Stream size : 39.0 KiB (0%)
Language : Swedish (SE)
Default : No
Forced : No


Text #25
ID : 27
Format : UTF-8
Codec ID : S_TEXT/UTF8
Codec ID/Info : UTF-8 Plain Text
Duration : 1 h 17 min
Bit rate : 65 b/s
Frame rate : 0.246 FPS
Count of elements : 1143
Stream size : 37.0 KiB (0%)
Language : Turkish (TR)
Default : No
Forced : No


Text #26
ID : 28
Format : UTF-8
Codec ID : S_TEXT/UTF8
Codec ID/Info : UTF-8 Plain Text
Duration : 1 h 17 min
Bit rate : 103 b/s
Frame rate : 0.246 FPS
Count of elements : 1142
Stream size : 58.8 KiB (0%)
Title : Ukraine
Language : Ukrainian (UA)
Default : No
Forced : No


Menu
00:00:00.000 : en:Amazon Original
00:00:06.000 : en:Scene 2
00:00:39.000 : en:Scene 3
00:02:57.000 : en:Scene 4
00:04:24.000 : en:Scene 5
00:06:02.000 : en:Scene 6
00:06:49.000 : en:Scene 7
00:08:10.000 : en:Scene 8
00:08:54.000 : en:Scene 9
00:09:33.000 : en:Scene 10
00:11:24.000 : en:Scene 11
00:13:48.000 : en:Scene 12
00:16:16.000 : en:Scene 13
00:20:45.000 : en:Scene 14
00:26:57.000 : en:Scene 15
00:31:27.000 : en:Scene 16
00:37:19.000 : en:Scene 17
00:39:56.000 : en:Scene 18
00:42:13.000 : en:Scene 19
00:44:31.000 : en:Scene 20
00:50:07.000 : en:Scene 21
00:54:38.000 : en:Scene 22
00:59:26.000 : en:Scene 23
01:00:10.000 : en:Scene 24
01:06:07.000 : en:Scene 25
01:14:15.000 : en:Scene 26
01:15:48.000 : en:End Credits
The.Three.Wise.Men.The.Truth.2022.SPANISH.2160p.AMZN.WEB-DL.x265.10bit.HDR10Plus.DDP5.1-FLUX

蓝光高清网提示您 点击下方附件名称 即可开始下载

The.Three.Wise.Men.The.Truth.2022.SPANISH.2160p.AMZN.WEB-DL.x265.10bit.HDR10Plus.DDP5.1-电影下载

The.Three.Wise.Men.The.Truth.2022.SPANISH.2160p.AMZN.WEB-DL.x265.10bit.HDR10Plus.DDP5.1【8.40 GB】

The.Three.Wise.Men.The.Truth.2022.SPANISH.2160p.AMZN.WEB-DL.x265.10bit.HDR10Plus.DDP5.1-FLUX.torrent ( 21.69 KB )



加入蓝光高清网VIP会员  无限制下载本站所有资源---点这里

资源下载、资源播放、字幕使用、无法下载等常见问题---点这里
回复

使用道具 举报

全部回复0 显示全部楼层

发表回复

您需要登录后才可以回帖 登录 | 立即注册

本版积分规则