本站已运行

蓝光高清网

搜索

[传记纪录片] 水下中国 全集.国语.中英字幕.Underwater.China.2019.E01.Web-DL.1080p.H264.AAC 4k纪录片

蓝鸟 发表于 2023-4-3 10:32:32 | 显示全部楼层 |阅读模式

水下中国 全集.国语.中英字幕.Underwater.China.2019.E01.Web-DL.1080p.H264.AAC 4k纪录片

水下中国  全集.国语.中英字幕.Underwater.China.2019.E01.Web-DL.1080p.H264.AAC 4k纪录片

General
Format                         : Matroska
Format version                 : Version 4
File size                      : 1.24 GiB
Duration                       : 34 min 27 s
Overall bit rate               : 5 138 kb/s
Encoded date                   : UTC 2020-01-16 04:54:45
Writing application            : mkvmerge v11.0.0 (\'Alive\') 64bit
Writing library                : libebml v1.3.4 + libmatroska v1.4.5


Video
ID                             : 1
Format                         : AVC
Format/Info                    : Advanced Video Codec
Format profile                 : High@L5.1
Format settings                : CABAC / 4 Ref Frames
Format settings, CABAC         : Yes
Format settings, Reference fra : 4 frames
Codec ID                       : V_MPEG4/ISO/AVC
Duration                       : 34 min 27 s
Bit rate                       : 5 012 kb/s
Width                          : 3 840 pixels
Height                         : 2 160 pixels
Display aspect ratio           : 16:9
Frame rate mode                : Constant
Frame rate                     : 25.000 FPS
Color space                    : YUV
Chroma subsampling             : 4:2:0
Bit depth                      : 8 bits
Scan type                      : Progressive
Bits/(Pixel*Frame)             : 0.024
Stream size                    : 1.21 GiB (98%)
Writing library                : x264 core 148 r2721+46 0c4b09a xiaowan [8-bit@ALL X86]
Encoding settings              : cabac=1 / ref=4 / deblock=1:1:1 / analyse=0x3:0x133 / me=umh / subme=10 / aq2=0 / aq3=0
Language                       : English
Default                        : Yes
Forced                         : No
Color range                    : Limited
Matrix coefficients            : BT.709


Audio
ID                             : 2
Format                         : AAC LC
Format/Info                    : Advanced Audio Codec Low Complexity
Codec ID                       : A_AAC-2
Duration                       : 34 min 27 s
Bit rate                       : 125 kb/s
Channel(s)                     : 2 channels
Channel layout                 : L R
Sampling rate                  : 44.1 kHz
Frame rate                     : 43.066 FPS (1024 SPF)
Compression mode               : Lossy
Stream size                    : 30.7 MiB (2%)
Default                        : Yes
Forced                         : No

水下中国  全集.国语.中英字幕.Underwater.China.2019.E01.Web-DL.1080p.H264.AAC 4k纪录片下载

4K 水下中国(中字)(1-6).txt ( 254 Bytes )



加入蓝光高清网VIP会员  无限制下载本站所有资源---点这里

资源下载、资源播放、字幕使用、无法下载等常见问题---点这里
回复

使用道具 举报

全部回复0 显示全部楼层

发表回复

您需要登录后才可以回帖 登录 | 立即注册

本版积分规则

开通会员 帮助中心 返回顶部 返回列表