本站已运行

蓝光高清网

搜索

[动物世界] 恐龙的后代 Modern.Dinosaurs.S01.2160p.WEBRip.AAC2.0.x264-CBFM 4k纪录片

蓝鸟 发表于 2023-4-3 10:48:09 | 显示全部楼层 |阅读模式

恐龙的后代 Modern.Dinosaurs.S01.2160p.WEBRip.AAC2.0.x264-CBFM 4k纪录片

恐龙的后代 Modern.Dinosaurs.S01.2160p.WEBRip.AAC2.0.x264-CBFM 4k纪录片

General
Format                         : Matroska
Format version                 : Version 4
File size                      : 7.79 GiB
Duration                       : 44 min 11 s
Overall bit rate               : 25.3 Mb/s
Encoded date                   : UTC 2023-01-16 04:46:29
Writing application            : mkvmerge v67.0.0.33 (\'Under Stars\') 64-bit
Writing library                : libebml v1.4.2 + libmatroska v1.6.4


Video
ID                             : 1
Format                         : AVC
Format/Info                    : Advanced Video Codec
Format profile                 : Main@L5.1
Format settings                : CABAC / 5 Ref Frames
Format settings, CABAC         : Yes
Format settings, Reference fra : 5 frames
Codec ID                       : V_MPEG4/ISO/AVC
Duration                       : 44 min 11 s
Bit rate                       : 25.0 Mb/s
Width                          : 3 840 pixels
Height                         : 2 160 pixels
Display aspect ratio           : 16:9
Frame rate mode                : Constant
Frame rate                     : 25.000 FPS
Color space                    : YUV
Chroma subsampling             : 4:2:0
Bit depth                      : 8 bits
Scan type                      : Progressive
Bits/(Pixel*Frame)             : 0.121
Stream size                    : 7.71 GiB (99%)
Default                        : Yes
Forced                         : No


Audio
ID                             : 2
Format                         : AAC LC
Format/Info                    : Advanced Audio Codec Low Complexity
Codec ID                       : A_AAC-2
Duration                       : 44 min 11 s
Bit rate                       : 253 kb/s
Channel(s)                     : 2 channels
Channel layout                 : L R
Sampling rate                  : 48.0 kHz
Frame rate                     : 46.875 FPS (1024 SPF)
Compression mode               : Lossy
Stream size                    : 80.1 MiB (1%)
Language                       : English
Default                        : Yes
Forced                         : No


Text
ID                             : 3
Format                         : UTF-8
Codec ID                       : S_TEXT/UTF8
Codec ID/Info                  : UTF-8 Plain Text
Duration                       : 44 min 6 s
Bit rate                       : 87 b/s
Frame rate                     : 0.287 FPS
Count of elements              : 759
Stream size                    : 28.2 KiB (0%)
Language                       : English
Default                        : No
Forced                         : No

4K 恐龙的后代(1-6)(英...0p.WEBRip.AAC2.0.x264-CBFM[rartv].txt ( 276 Bytes )



来源: 恐龙的后代 Modern.Dinosaurs.S01.2160p.WEBRip.AAC2.0.x264-CBFM 4k纪录片
加入蓝光高清网VIP会员  无限制下载本站所有资源---点这里

资源下载、资源播放、字幕使用、无法下载等常见问题---点这里
回复

使用道具 举报

全部回复2 显示全部楼层
majianguook 发表于 2024-1-28 01:51:08 | 显示全部楼层
非常不错,感谢博主分享。
回复 支持 反对

使用道具 举报

吴家大少爷手机认证 发表于 2024-5-29 10:39:39 | 显示全部楼层
非常感谢蓝光高清网分享的各种知识和资源,祝蓝光高清网越来越好
回复 支持 反对

使用道具 举报

发表回复

您需要登录后才可以回帖 登录 | 立即注册

本版积分规则

开通会员 帮助中心 返回顶部 返回列表