本站已运行

蓝光高清网

搜索

[美国] 泰勒·斯威夫特:“举世盛名”巡回演唱会4K Taylor.Swift.Reputation.Stadium.Tour.2018.2160p.NF.WEB-DL.x265.10bit.HDR.DDP5.1.Atmos-4K演唱会

 
小山雀 发表于 2023-4-10 16:11:58 | 显示全部楼层 |阅读模式

泰勒·斯威夫特:“举世盛名”巡回演唱会4K Taylor.Swift.Reputation.Stadium.Tour.2018.2160p.NF.WEB-DL.x ...

泰勒·斯威夫特:“举世盛名”巡回演唱会4K Taylor.Swift.Reputation.Stadium.Tour.2018.2160p.NF.WEB-DL.x ...




简       介


  您已读过头条,听过传闻,而现在她将用红唇唱出真相。泰勒·斯威夫特将赠予全世界观众近距离观赏“泰勒·斯威夫特的名誉体育场巡回演唱会”在美国最后一场表演的机会,该巡回演唱会是美国历史以来销售额最高的巡演,现在仅在 Netflix 上放映!这部传奇的演唱会电影将展示火焰特技、烟花、数个场景以及 63 英尺的眼镜蛇卡林。《泰勒·斯威夫特的名誉体育场巡回演唱会》将从 12 月 31 日起在 Netflix 上面向全球上线,您可以随处观看这场销售一空并囊括 6 万人的表演——无论是在家庭聚会上,东区的酒吧里,还是在沙发上和猫一起看。无论如何,这都将是一个最佳的新年夜计划。你准备好了吗?

影片参数
泰勒丝:举世盛名巡回演唱会(台) / Taylor Swift: Reputation巡回演唱会(港) / 泰勒·斯威夫特:“名誉”巡回演唱会 / Taylor Swift: Reputation巡演纪录片/泰勒·斯威夫特:“举世盛名”巡回演唱会4K Taylor.Swift.Reputation.Stadium.Tour.2018.2160p.NF.WEB-DL.x265.10bit.HDR.DDP5.1.Atmos-4K演唱会资源信息
Video
ID : 1
Format : HEVC
Format/Info : High Efficiency Video Coding
Format profile : Main 10@L5@Main
HDR format : Dolby Vision, Version 1.0, dvhe.08.06, BL+RPU, HDR10 compatible / SMPTE ST 2086, HDR10 compatible
Codec ID : V_MPEGH/ISO/HEVC
Duration : 2 h 5 min
Bit rate : 19.1 Mb/s
Width : 3 840 pixels
Height : 2 160 pixels
Display aspect ratio : 16:9
Frame rate mode : Constant
Frame rate : 23.976 (24000/1001) FPS
Color space : YUV
Chroma subsampling : 4:2:0 (Type 2)
Bit depth : 10 bits
Bits/(Pixel*Frame) : 0.096
Stream size : 16.8 GiB (96%)
Default : Yes
Forced : No
Color range : Limited
Color primaries : BT.2020
Transfer characteristics : PQ
Matrix coefficients : BT.2020 non-constant
Mastering display color primaries : Display P3
Mastering display luminance : min: 0.0001 cd/m2, max: 1000 cd/m2
Maximum Content Light Level : 10000 cd/m2
Maximum Frame-Average Light Level : 2330 cd/m2


Audio
ID : 2
Format : E-AC-3 JOC
Format/Info : Enhanced AC-3 with Joint Object Coding
Commercial name : Dolby Digital Plus with Dolby Atmos
Codec ID : A_EAC3
Duration : 2 h 5 min
Bit rate mode : Constant
Bit rate : 768 kb/s
Channel(s) : 6 channels
Channel layout : L R C LFE Ls Rs
Sampling rate : 48.0 kHz
Frame rate : 31.250 FPS (1536 SPF)
Compression mode : Lossy
Stream size : 689 MiB (4%)
Language : English
Service kind : Complete Main
Default : Yes
Forced : No
Complexity index : 16
Number of dynamic objects : 15
Bed channel count : 1 channel
Bed channel configuration : LFE


Text #1
ID : 3
Format : UTF-8
Codec ID : S_TEXT/UTF8
Codec ID/Info : UTF-8 Plain Text
Duration : 2 h 4 min
Bit rate : 102 b/s
Frame rate : 0.258 FPS
Count of elements : 1936
Stream size : 94.1 KiB (0%)
Language : English
Default : No
Forced : No


Text #2
ID : 4
Format : UTF-8
Codec ID : S_TEXT/UTF8
Codec ID/Info : UTF-8 Plain Text
Duration : 2 h 5 min
Bit rate : 107 b/s
Frame rate : 0.277 FPS
Count of elements : 2079
Stream size : 98.8 KiB (0%)
Title : SDH
Language : English
Default : No
Forced : No


Text #3
ID : 5
Format : UTF-8
Codec ID : S_TEXT/UTF8
Codec ID/Info : UTF-8 Plain Text
Duration : 2 h 4 min
Bit rate : 27 b/s
Frame rate : 0.063 FPS
Count of elements : 471
Stream size : 25.5 KiB (0%)
Language : Arabic
Default : No
Forced : No


Text #4
ID : 6
Format : UTF-8
Codec ID : S_TEXT/UTF8
Codec ID/Info : UTF-8 Plain Text
Duration : 2 h 4 min
Bit rate : 16 b/s
Frame rate : 0.056 FPS
Count of elements : 419
Stream size : 14.8 KiB (0%)
Language : Czech
Default : No
Forced : No


Text #5
ID : 7
Format : UTF-8
Codec ID : S_TEXT/UTF8
Codec ID/Info : UTF-8 Plain Text
Duration : 2 h 4 min
Bit rate : 16 b/s
Frame rate : 0.057 FPS
Count of elements : 423
Stream size : 14.6 KiB (0%)
Language : Danish
Default : No
Forced : No


Text #6
ID : 8
Format : UTF-8
Codec ID : S_TEXT/UTF8
Codec ID/Info : UTF-8 Plain Text
Duration : 2 h 4 min
Bit rate : 18 b/s
Frame rate : 0.054 FPS
Count of elements : 405
Stream size : 16.7 KiB (0%)
Language : German
Default : No
Forced : No


Text #7
ID : 9
Format : UTF-8
Codec ID : S_TEXT/UTF8
Codec ID/Info : UTF-8 Plain Text
Duration : 2 h 4 min
Bit rate : 29 b/s
Frame rate : 0.058 FPS
Count of elements : 432
Stream size : 27.1 KiB (0%)
Language : Greek
Default : No
Forced : No


Text #8
ID : 10
Format : UTF-8
Codec ID : S_TEXT/UTF8
Codec ID/Info : UTF-8 Plain Text
Duration : 2 h 4 min
Bit rate : 17 b/s
Frame rate : 0.060 FPS
Count of elements : 448
Stream size : 15.6 KiB (0%)
Title : Latin American
Language : Spanish (Latin America)
Default : No
Forced : No


Text #9
ID : 11
Format : UTF-8
Codec ID : S_TEXT/UTF8
Codec ID/Info : UTF-8 Plain Text
Duration : 2 h 4 min
Bit rate : 16 b/s
Frame rate : 0.063 FPS
Count of elements : 470
Stream size : 15.2 KiB (0%)
Title : European
Language : Spanish (ES)
Default : No
Forced : No


Text #10
ID : 12
Format : UTF-8
Codec ID : S_TEXT/UTF8
Codec ID/Info : UTF-8 Plain Text
Duration : 2 h 4 min
Bit rate : 15 b/s
Frame rate : 0.043 FPS
Count of elements : 319
Stream size : 14.0 KiB (0%)
Language : Finnish
Default : No
Forced : No


Text #11
ID : 13
Format : UTF-8
Codec ID : S_TEXT/UTF8
Codec ID/Info : UTF-8 Plain Text
Duration : 2 h 4 min
Bit rate : 17 b/s
Frame rate : 0.063 FPS
Count of elements : 468
Stream size : 15.9 KiB (0%)
Language : French
Default : No
Forced : No


Text #12
ID : 14
Format : UTF-8
Codec ID : S_TEXT/UTF8
Codec ID/Info : UTF-8 Plain Text
Duration : 2 h 4 min
Bit rate : 26 b/s
Frame rate : 0.063 FPS
Count of elements : 469
Stream size : 24.6 KiB (0%)
Language : Hebrew
Default : No
Forced : No


Text #13
ID : 15
Format : UTF-8
Codec ID : S_TEXT/UTF8
Codec ID/Info : UTF-8 Plain Text
Duration : 2 h 4 min
Bit rate : 17 b/s
Frame rate : 0.056 FPS
Count of elements : 421
Stream size : 16.4 KiB (0%)
Language : Hungarian
Default : No
Forced : No


Text #14
ID : 16
Format : UTF-8
Codec ID : S_TEXT/UTF8
Codec ID/Info : UTF-8 Plain Text
Duration : 2 h 4 min
Bit rate : 16 b/s
Frame rate : 0.056 FPS
Count of elements : 417
Stream size : 15.4 KiB (0%)
Language : Indonesian
Default : No
Forced : No


Text #15
ID : 17
Format : UTF-8
Codec ID : S_TEXT/UTF8
Codec ID/Info : UTF-8 Plain Text
Duration : 2 h 4 min
Bit rate : 15 b/s
Frame rate : 0.061 FPS
Count of elements : 455
Stream size : 14.6 KiB (0%)
Language : Italian
Default : No
Forced : No


Text #16
ID : 18
Format : UTF-8
Codec ID : S_TEXT/UTF8
Codec ID/Info : UTF-8 Plain Text
Duration : 2 h 4 min
Bit rate : 21 b/s
Frame rate : 0.058 FPS
Count of elements : 435
Stream size : 20.0 KiB (0%)
Language : Japanese
Default : No
Forced : No


Text #17
ID : 19
Format : UTF-8
Codec ID : S_TEXT/UTF8
Codec ID/Info : UTF-8 Plain Text
Duration : 2 h 4 min
Bit rate : 18 b/s
Frame rate : 0.062 FPS
Count of elements : 467
Stream size : 17.0 KiB (0%)
Language : Korean
Default : No
Forced : No


Text #18
ID : 20
Format : UTF-8
Codec ID : S_TEXT/UTF8
Codec ID/Info : UTF-8 Plain Text
Duration : 2 h 4 min
Bit rate : 16 b/s
Frame rate : 0.055 FPS
Count of elements : 415
Stream size : 14.6 KiB (0%)
Language : Norwegian Bokmal
Default : No
Forced : No


Text #19
ID : 21
Format : UTF-8
Codec ID : S_TEXT/UTF8
Codec ID/Info : UTF-8 Plain Text
Duration : 2 h 4 min
Bit rate : 14 b/s
Frame rate : 0.053 FPS
Count of elements : 396
Stream size : 13.3 KiB (0%)
Language : Dutch
Default : No
Forced : No


Text #20
ID : 22
Format : UTF-8
Codec ID : S_TEXT/UTF8
Codec ID/Info : UTF-8 Plain Text
Duration : 2 h 4 min
Bit rate : 15 b/s
Frame rate : 0.051 FPS
Count of elements : 385
Stream size : 13.9 KiB (0%)
Language : Polish
Default : No
Forced : No


Text #21
ID : 23
Format : UTF-8
Codec ID : S_TEXT/UTF8
Codec ID/Info : UTF-8 Plain Text
Duration : 2 h 4 min
Bit rate : 14 b/s
Frame rate : 0.058 FPS
Count of elements : 436
Stream size : 13.7 KiB (0%)
Title : Brazilian
Language : Portuguese (BR)
Default : No
Forced : No


Text #22
ID : 24
Format : UTF-8
Codec ID : S_TEXT/UTF8
Codec ID/Info : UTF-8 Plain Text
Duration : 2 h 4 min
Bit rate : 17 b/s
Frame rate : 0.055 FPS
Count of elements : 409
Stream size : 16.1 KiB (0%)
Title : European
Language : Portuguese (PT)
Default : No
Forced : No


Text #23
ID : 25
Format : UTF-8
Codec ID : S_TEXT/UTF8
Codec ID/Info : UTF-8 Plain Text
Duration : 2 h 4 min
Bit rate : 19 b/s
Frame rate : 0.058 FPS
Count of elements : 437
Stream size : 17.8 KiB (0%)
Language : Romanian
Default : No
Forced : No


Text #24
ID : 26
Format : UTF-8
Codec ID : S_TEXT/UTF8
Codec ID/Info : UTF-8 Plain Text
Duration : 2 h 4 min
Bit rate : 27 b/s
Frame rate : 0.064 FPS
Count of elements : 476
Stream size : 25.0 KiB (0%)
Language : Russian
Default : No
Forced : No


Text #25
ID : 27
Format : UTF-8
Codec ID : S_TEXT/UTF8
Codec ID/Info : UTF-8 Plain Text
Duration : 2 h 4 min
Bit rate : 14 b/s
Frame rate : 0.051 FPS
Count of elements : 379
Stream size : 13.5 KiB (0%)
Language : Swedish
Default : No
Forced : No


Text #26
ID : 28
Format : UTF-8
Codec ID : S_TEXT/UTF8
Codec ID/Info : UTF-8 Plain Text
Duration : 2 h 4 min
Bit rate : 46 b/s
Frame rate : 0.063 FPS
Count of elements : 474
Stream size : 42.3 KiB (0%)
Language : Thai
Default : No
Forced : No


Text #27
ID : 29
Format : UTF-8
Codec ID : S_TEXT/UTF8
Codec ID/Info : UTF-8 Plain Text
Duration : 2 h 4 min
Bit rate : 16 b/s
Frame rate : 0.063 FPS
Count of elements : 472
Stream size : 15.5 KiB (0%)
Language : Turkish
Default : No
Forced : No


Text #28
ID : 30
Format : UTF-8
Codec ID : S_TEXT/UTF8
Codec ID/Info : UTF-8 Plain Text
Duration : 2 h 4 min
Bit rate : 114 b/s
Frame rate : 0.264 FPS
Count of elements : 1976
Stream size : 105 KiB (0%)
Language : Vietnamese
Default : No
Forced : No


Text #29
ID : 31
Format : UTF-8
Codec ID : S_TEXT/UTF8
Codec ID/Info : UTF-8 Plain Text
Duration : 2 h 4 min
Bit rate : 17 b/s
Frame rate : 0.063 FPS
Count of elements : 473
Stream size : 15.6 KiB (0%)
Title : Simplified
Language : Chinese (Simplied)
Default : No
Forced : No


Text #30
ID : 32
Format : UTF-8
Codec ID : S_TEXT/UTF8
Codec ID/Info : UTF-8 Plain Text
Duration : 2 h 4 min
Bit rate : 16 b/s
Frame rate : 0.063 FPS
Count of elements : 474
Stream size : 15.4 KiB (0%)
Title : Traditional
Language : Chinese (Traditional)
Default : No
Forced : No


Menu
00:00:00.000 : enart 01
02:05:20.450 : en:Credits


泰勒丝:举世盛名巡回演唱会(台) / Taylor Swift: Reputation巡回演唱会(港) / 泰勒·斯威夫特:“名誉”巡回演唱会 / Taylor Swift: Reputation巡演纪录片/泰勒·斯威夫特:“举世盛名”巡回演唱会4K Taylor.Swift.Reputation.Stadium.Tour.2018.2160p.NF.WEB-DL.x265.10bit.HDR.DDP5.1.Atmos-4K资源下载

泰勒·斯威夫特:“举世盛名”巡回演唱会4K Taylor.Swift.Reputation.Stadium.Tour.2018.2160p.NF.WEB-DL.x265.10bit.HDR.DDP5.1.Atmos【简繁中字】【HDR 17.44 GB】

泰勒·斯威夫特:“举世盛名”巡回演唱会4K Taylor.Swift.Reputation.Stadium.Tour.2018.2160p.NF.WEB-DL.x265.10bit.HDR.DDP5.1.Atmos-CRFW.torrent ( 22.51 KB )




来源: 泰勒·斯威夫特:“举世盛名”巡回演唱会4K Taylor.Swift.Reputation.Stadium.Tour.2018.2160p.NF.WEB-DL.x265.10bit.HDR.DDP5.1.Atmos-4K演唱会
回复

使用道具 举报

全部回复11 显示全部楼层
咩咩咩咩吗 发表于 2023-11-19 08:30:36 | 显示全部楼层
感谢楼主大人分享6666666666
回复 支持 反对

使用道具 举报

jrzling手机认证 发表于 2023-11-30 21:42:40 | 显示全部楼层
霉霉YYDS啊,最新的电影赶紧出来
回复 支持 反对

使用道具 举报

yuanyuan1987 发表于 2023-12-6 17:29:13 | 显示全部楼层
谢谢分享精彩的资源
回复 支持 反对

使用道具 举报

yuanyuan1987 发表于 2023-12-6 17:29:25 | 显示全部楼层
谢谢分享精彩的资源
回复 支持 反对

使用道具 举报

yuanyuan1987 发表于 2023-12-6 17:29:37 | 显示全部楼层
谢谢分享精彩的资源谢谢分享精彩的资源谢谢分享精彩的资源谢谢分享精彩的资源谢谢分享精彩的资源谢谢分享精彩的资源
回复 支持 反对

使用道具 举报

yuanyuan1987 发表于 2023-12-25 11:03:05 | 显示全部楼层
很好的资源,感谢分享!
回复 支持 反对

使用道具 举报

cctv306手机认证 发表于 2024-4-20 05:10:04 | 显示全部楼层
谢谢分享
回复

使用道具 举报

cctv306手机认证 发表于 2024-5-11 05:57:18 | 显示全部楼层
谢谢分享。
回复

使用道具 举报

cctv306手机认证 发表于 2024-5-26 06:47:51 | 显示全部楼层
很不错  感谢分享
回复 支持 反对

使用道具 举报

发表回复

您需要登录后才可以回帖 登录 | 立即注册

本版积分规则

开通会员 帮助中心 返回顶部 返回列表