本站已运行

蓝光高清网

搜索

[剧情] 巧妇怨.Rachel.Rachel.1968.1080p.BluRay.x264-RUSTED 11.03GB

蓝鸟 发表于 2023-5-20 10:06:05 | 显示全部楼层 |阅读模式

巧妇怨.Rachel.Rachel.1968.1080p.BluRay.x264-RUSTED 11.03GB

巧妇怨.Rachel.Rachel.1968.1080p.BluRay.x264-RUSTED 11.03GB


译  名 巧妇怨 / 梨花一枝春带雨 / 雷恰尔,雷恰尔
片  名 Rachel, Rachel
年  代 1968
产  地 美国
类  别 剧情 / 爱情
语  言 英语
上映日期 1968-08-26
IMDb评星  ★★★★★★★☆☆☆
IMDb评分  7.1/10 from 3,715 users
豆瓣评星 ★★★✦☆
豆瓣评分 7.0/10 from 299 users
片  长 101 分钟
导  演 保罗·纽曼 / Paul Newman
演  员 乔安娜·伍德沃德 / Joanne Woodward
      詹姆斯·奥尔森 / James Olson
      凯特·哈林顿 / Kate Harrington
编  剧 斯图尔特·斯特恩 / Stewart Stern
制  片  人 保罗·纽曼 / Paul Newman
美  术 Robert Gundlach Robert Gundlach
化  妆 科琳·卡拉甘 / Colleen Callaghan

简  介

小学老师瑞秋(乔安娜·伍德沃德 Joanne Woodward 饰)已经三十五岁了,却依然过着形单影只的孤独生活,父亲去世,她和母亲(Kate Harrington 饰)之间的关系愈发紧张起来。在学校里,瑞秋的同事卡拉(艾丝特尔·帕森斯 Estelle Parsons 饰)似乎对瑞秋颇为倾心,但瑞秋对她则毫无感觉。
  某日,瑞秋遇见了曾经的高中同学尼克(James Olson 饰),在尼克的带领和诱惑下,她第一次品尝到了激情的甜美滋味。然而,正当瑞秋决定和尼克展开一段全新恋情之时,却发现,尼克是一个彻头彻尾的花花公子,可是,即便如此,单纯善良的瑞秋依旧付出了她的真心,得到的却是无情的拒绝。人生对于瑞秋来说还很漫长,但她觉得自己已经老了。
获奖情况 
  第41届奥斯卡金像奖 (1969)
  最佳影片(提名) 保罗·纽曼
  最佳女主角(提名) 乔安娜·伍德沃德
  最佳女配角(提名) 埃斯特尔·帕森斯
  最佳改编剧本(提名) 斯图尔特·斯特恩

影片参数
  1. Video
  2. ID : 1
  3. Format : AVC
  4. Format/Info : Advanced Video Codec
  5. Format profile : [email protected]
  6. Format settings : CABAC / 4 Ref Frames
  7. Format settings, CABAC : Yes
  8. Format settings, Reference frames : 4 frames
  9. Codec ID : V_MPEG4/ISO/AVC
  10. Duration : 1 h 41 min
  11. Bit rate : 15.3 Mb/s
  12. Width : 1 920 pixels
  13. Height : 1 040 pixels
  14. Display aspect ratio : 1.85:1
  15. Frame rate mode : Constant
  16. Frame rate : 23.976 (24000/1001) FPS
  17. Color space : YUV
  18. Chroma subsampling : 4:2:0
  19. Bit depth : 8 bits
  20. Scan type : Progressive
  21. Bits/(Pixel*Frame) : 0.319
  22. Stream size : 10.8 GiB (98%)
  23. Writing library : x264 core 164 r3107 a8b68eb
  24. Encoding settings : cabac=1 / ref=4 / deblock=1:-3:-3 / analyse=0x3:0x133 / me=umh / subme=9 / psy=1 / psy_rd=1.00:0.00 / mixed_ref=1 / me_range=16 / chroma_me=1 / trellis=2 / 8x8dct=1 / cqm=0 / deadzone=21,11 / fast_pskip=0 / chroma_qp_offset=-2 / threads=24 / lookahead_threads=2 / sliced_threads=0 / nr=0 / decimate=0 / interlaced=0 / bluray_compat=0 / constrained_intra=0 / bframes=3 / b_pyramid=2 / b_adapt=2 / b_bias=0 / direct=3 / weightb=1 / open_gop=0 / weightp=2 / keyint=250 / keyint_min=23 / scenecut=40 / intra_refresh=0 / rc=crf / mbtree=0 / crf=19.5 / qcomp=0.60 / qpmin=0 / qpmax=69 / qpstep=4 / ip_ratio=1.40 / pb_ratio=1.30 / aq=3:0.70
  25. Language : English
  26. Default : Yes
  27. Forced : No
  28. Color range : Limited
  29. Matrix coefficients : BT.709
  30. Audio
  31. ID : 2
  32. Format : FLAC
  33. Format/Info : Free Lossless Audio Codec
  34. Codec ID : A_FLAC
  35. Duration : 1 h 41 min
  36. Bit rate mode : Variable
  37. Bit rate : 321 kb/s
  38. Channel(s) : 2 channels
  39. Channel layout : L R
  40. Sampling rate : 48.0 kHz
  41. Frame rate : 11.719 FPS (4096 SPF)
  42. Bit depth : 24 bits
  43. Compression mode : Lossless
  44. Stream size : 232 MiB (2%)
  45. Writing library : libFLAC 1.4.2 (UTC 2022-10-22)
  46. Language : English
  47. Default : Yes
  48. Forced : No
  49. Text #1
  50. ID : 3
  51. Format : UTF-8
  52. Codec ID : S_TEXT/UTF8
  53. Codec ID/Info : UTF-8 Plain Text
  54. Duration : 1 h 37 min
  55. Bit rate : 51 b/s
  56. Count of elements : 1210
  57. Stream size : 37.1 KiB (0%)
  58. Title : English (SRT)
  59. Language : English
  60. Default : No
  61. Forced : No
  62. Text #2
  63. ID : 4
  64. Format : UTF-8
  65. Codec ID : S_TEXT/UTF8
  66. Codec ID/Info : UTF-8 Plain Text
  67. Duration : 1 h 38 min
  68. Bit rate : 58 b/s
  69. Count of elements : 1347
  70. Stream size : 42.4 KiB (0%)
  71. Title : English (SDH SRT)
  72. Language : English
  73. Default : No
  74. Forced : No
  75. Text #3
  76. ID : 5
  77. Format : PGS
  78. Muxing mode : zlib
  79. Codec ID : S_HDMV/PGS
  80. Codec ID/Info : Picture based subtitle format used on BDs/HD-DVDs
  81. Duration : 1 h 38 min
  82. Bit rate : 31.4 kb/s
  83. Count of elements : 2694
  84. Stream size : 22.2 MiB (0%)
  85. Title : English (SDH)
  86. Language : English
  87. Default : No
  88. Forced : No
  89. Menu
  90. 00:00:00.000 : en:Chapter 01
  91. 00:01:12.906 : en:Chapter 02
  92. 00:03:59.281 : en:Chapter 03
  93. 00:05:43.635 : en:Chapter 04
  94. 00:08:56.536 : en:Chapter 05
  95. 00:12:03.014 : en:Chapter 06
  96. 00:18:16.220 : en:Chapter 07
  97. 00:20:51.584 : en:Chapter 08
  98. 00:24:55.327 : en:Chapter 09
  99. 00:26:59.701 : en:Chapter 10
  100. 00:30:20.819 : en:Chapter 11
  101. 00:34:11.549 : en:Chapter 12
  102. 00:41:11.177 : en:Chapter 13
  103. 00:43:48.709 : en:Chapter 14
  104. 00:47:59.418 : en:Chapter 15
  105. 00:52:42.368 : en:Chapter 16
  106. 00:54:25.512 : en:Chapter 17
  107. 00:57:28.278 : en:Chapter 18
  108. 01:00:39.719 : en:Chapter 19
  109. 01:02:33.166 : en:Chapter 20
  110. 01:04:47.675 : en:Chapter 21
  111. 01:07:06.481 : en:Chapter 22
  112. 01:12:31.681 : en:Chapter 23
  113. 01:14:12.198 : en:Chapter 24
  114. 01:17:24.640 : en:Chapter 25
  115. 01:21:14.536 : en:Chapter 26
  116. 01:24:59.761 : en:Chapter 27
  117. 01:27:32.080 : en:Chapter 28
  118. 01:31:00.455 : en:Chapter 29
  119. 01:32:02.225 : en:Chapter 30
  120. 01:35:36.856 : en:Chapter 31
  121. 01:37:10.825 : en:Chapter 32
  122. 01:38:59.684 : en:Chapter 33
复制代码

巧妇怨.Rachel.Rachel.1968.1080p.BluRay.x264-RUSTED 11.03GB

巧妇怨.Rachel.Rachel.1968.1080p.BluRay.x264-RUSTED 11.03GB



蓝光高清网提示您 点击下方附件即可下载

巧妇怨.Rachel.Rachel.1968.1080p.BluRay.x264-RUSTED 11.03GB

Rachel.Rachel.1968.1080p.BluRay.x264-RUSTED.torrent ( 14.51 KB )

加入蓝光高清网VIP会员  无限制下载本站所有资源---点这里

资源下载、资源播放、字幕使用、无法下载等常见问题---点这里
回复

使用道具 举报

全部回复0 显示全部楼层

发表回复

您需要登录后才可以回帖 登录 | 立即注册

本版积分规则

楼主

超级版主

热门推荐

开通会员 帮助中心 返回顶部 返回列表