本站已运行

蓝光高清网

搜索

[喜剧] 高卢英雄:中国大战罗马帝国.Asterix.and.Obelix.The.Middle.Kingdom.2023.FRENCH.1080p.BluRay.x264.DTS-NOGRP 8.69GB

蓝鸟 发表于 2023-5-20 10:06:28 | 显示全部楼层 |阅读模式

高卢英雄:中国大战罗马帝国.Asterix.and.Obelix.The.Middle.Kingdom.2023.FRENCH.1080p.BluRay.x264.DTS-N ...

高卢英雄:中国大战罗马帝国.Asterix.and.Obelix.The.Middle.Kingdom.2023.FRENCH.1080p.BluRay.x264.DTS-N ...


译  名 高卢英雄:中国大战罗马帝国 / 高卢英雄5 / 高卢英雄:中国 / Asterix & Obelix: The Middle Kingdom
片  名 Astérix & Obélix: L''Empire du Milieu
年  代 2023
产  地 法国
类  别 喜剧 / 冒险
语  言 法语
上映日期 2023-02-01(法国)
IMDb评星  ★★★★★☆☆☆☆☆
IMDb评分  4.8/10 from 3,210 users
导  演 吉约姆·卡内 / Guillaume Canet
演  员 吉约姆·卡内 / Guillaume Canet | 饰 Astérix
      吉尔·勒卢什 / Gilles Lellouche | 饰 Obélix
      文森特·卡索 / Vincent Cassel | 饰 César
      玛丽昂·歌迪亚 / Marion Cotillard | 饰 Cléopâtre
      梅兰尼·蒂埃里 / Mélanie Thierry
      范林丹 / Linh Dan Pham | 饰 L''impératrice
      皮埃尔·里夏尔 / Pierre Richard | 饰 Panoramix
      兹拉坦·伊布拉西莫维奇 / Zlatan Ibrahimovic | 饰 Oneofus
      何塞·加西亚 / José Garcia | 饰 Biopix
      弗兰克·盖思堂彼得 / Franck Gastambide | 饰 Barbe Rouge
      乔纳森·科恩 / Jonathan Cohen | 饰 Graindemaïs
      朗齐·贝迪亚 / Ramzy Bedia | 饰 Epidemaïs
      安琪儿 / Angèle | 饰 Falbala
      奥黛丽·拉米 / Audrey Lamy | 饰 Bonemine
      杰罗姆·芒德尔 / Jérôme Commandeur | 饰 Abraracourcix
      Mathieu Chedid Mathieu Chedid | 饰 Remix
      菲烈·卡特林 / Philippe Katerine | 饰 Assurancetourix
      马努·佩埃特 / Manu Payet | 饰 Ri Qi Qi
      樊尚·德扎尼亚 / Vincent Desagnat | 饰 Perfidus
      马克·弗赖兹 / Marc Fraize | 饰 Plexus
      马克·黄 / Marc Hoang | 饰 Ramoli
编  剧 勒内·戈西尼 / René Goscinny
      阿尔伯特·尤德佐 / Albert Uderzo
      吉约姆·卡内 / Guillaume Canet
      菲利浦·米奇兰 / Philippe Mechelen
服  装 马德琳·封丹 / Madeline Fontaine
化  妆 奥利维尔·阿方索 / Olivier Afonso

简  介

It’s the year 50 BC. The Empress of China has just been imprisoned following a coup d’état incited by Deng Tsin Qin, a traitorous prince.
  Helped by Finalthesis, the Phoenician merchant, and her faithful bodyguard Mai Wei, the Empress’ only daughter Princess Sass-Yi flees to Gaul to ask for help from two valiant warriors Asterix and Obelix, who are endowed with superhuman strength thanks to their magic potion.
  Our two inseparable heroes gladly accept to help the Princess save her mother and free her country. And thus begins a great voyage and adventure on the road to China.
  But Caesar and his powerful army, thirsty for a new conquest, are also heading toward the Middle Kingdom.

影片参数
  1. Video
  2. ID : 1
  3. Format : AVC
  4. Format/Info : Advanced Video Codec
  5. Format profile : [email protected]
  6. Format settings : CABAC / 5 Ref Frames
  7. Format settings, CABAC : Yes
  8. Format settings, Reference frames : 5 frames
  9. Codec ID : V_MPEG4/ISO/AVC
  10. Duration : 1 h 50 min
  11. Bit rate : 8 953 kb/s
  12. Width : 1 920 pixels
  13. Height : 800 pixels
  14. Display aspect ratio : 2.40:1
  15. Frame rate mode : Constant
  16. Frame rate : 24.000 FPS
  17. Color space : YUV
  18. Chroma subsampling : 4:2:0
  19. Bit depth : 8 bits
  20. Scan type : Progressive
  21. Bits/(Pixel*Frame) : 0.243
  22. Stream size : 6.92 GiB (80%)
  23. Writing library : x264 core 164 r3106 eaa68fa
  24. Encoding settings : cabac=1 / ref=5 / deblock=1:-3:-3 / analyse=0x3:0x133 / me=umh / subme=9 / psy=1 / psy_rd=1.00:0.00 / mixed_ref=1 / me_range=16 / chroma_me=1 / trellis=2 / 8x8dct=1 / cqm=0 / deadzone=21,11 / fast_pskip=0 / chroma_qp_offset=-2 / threads=25 / lookahead_threads=2 / sliced_threads=0 / nr=0 / decimate=1 / interlaced=0 / bluray_compat=0 / constrained_intra=0 / bframes=3 / b_pyramid=2 / b_adapt=2 / b_bias=0 / direct=3 / weightb=1 / open_gop=0 / weightp=2 / keyint=250 / keyint_min=24 / scenecut=40 / intra_refresh=0 / rc_lookahead=60 / rc=crf / mbtree=1 / crf=17.0 / qcomp=0.60 / qpmin=0 / qpmax=69 / qpstep=4 / ip_ratio=1.40 / aq=1:1.00
  25. Language : French
  26. Default : Yes
  27. Forced : No
  28. Audio #1
  29. ID : 2
  30. Format : DTS
  31. Format/Info : Digital Theater Systems
  32. Codec ID : A_DTS
  33. Duration : 1 h 50 min
  34. Bit rate mode : Constant
  35. Bit rate : 1 509 kb/s
  36. Channel(s) : 6 channels
  37. Channel layout : C L R Ls Rs LFE
  38. Sampling rate : 48.0 kHz
  39. Frame rate : 93.750 FPS (512 SPF)
  40. Bit depth : 16 bits
  41. Compression mode : Lossy
  42. Stream size : 1.17 GiB (13%)
  43. Language : French
  44. Default : Yes
  45. Forced : No
  46. Audio #2
  47. ID : 3
  48. Format : E-AC-3 JOC
  49. Format/Info : Enhanced AC-3 with Joint Object Coding
  50. Commercial name : Dolby Digital Plus with Dolby Atmos
  51. Codec ID : A_EAC3
  52. Duration : 1 h 51 min
  53. Bit rate mode : Constant
  54. Bit rate : 768 kb/s
  55. Channel(s) : 6 channels
  56. Channel layout : L R C LFE Ls Rs
  57. Sampling rate : 48.0 kHz
  58. Frame rate : 31.250 FPS (1536 SPF)
  59. Compression mode : Lossy
  60. Stream size : 610 MiB (7%)
  61. Title : British
  62. Language : English (GB)
  63. Service kind : Complete Main
  64. Default : No
  65. Forced : No
  66. Complexity index : 16
  67. Number of dynamic objects : 15
  68. Bed channel count : 1 channel
  69. Bed channel configuration : LFE
  70. Text #1
  71. ID : 4
  72. Format : UTF-8
  73. Codec ID : S_TEXT/UTF8
  74. Codec ID/Info : UTF-8 Plain Text
  75. Duration : 1 h 45 min
  76. Bit rate : 1 b/s
  77. Frame rate : 0.008 FPS
  78. Count of elements : 49
  79. Stream size : 1.40 KiB (0%)
  80. Title : British (Forced)
  81. Language : English (GB)
  82. Default : No
  83. Forced : Yes
  84. Text #2
  85. ID : 5
  86. Format : UTF-8
  87. Codec ID : S_TEXT/UTF8
  88. Codec ID/Info : UTF-8 Plain Text
  89. Duration : 1 h 49 min
  90. Bit rate : 50 b/s
  91. Frame rate : 0.244 FPS
  92. Count of elements : 1603
  93. Stream size : 40.8 KiB (0%)
  94. Language : English
  95. Default : Yes
  96. Forced : No
  97. Text #3
  98. ID : 6
  99. Format : UTF-8
  100. Codec ID : S_TEXT/UTF8
  101. Codec ID/Info : UTF-8 Plain Text
  102. Duration : 1 h 46 min
  103. Bit rate : 84 b/s
  104. Frame rate : 0.315 FPS
  105. Count of elements : 2019
  106. Stream size : 66.3 KiB (0%)
  107. Title : British (SDH)
  108. Language : English (GB)
  109. Default : No
  110. Forced : No
  111. Text #4
  112. ID : 7
  113. Format : UTF-8
  114. Codec ID : S_TEXT/UTF8
  115. Codec ID/Info : UTF-8 Plain Text
  116. Duration : 1 h 45 min
  117. Bit rate : 68 b/s
  118. Frame rate : 0.259 FPS
  119. Count of elements : 1646
  120. Stream size : 52.9 KiB (0%)
  121. Language : French
  122. Default : No
  123. Forced : No
  124. Text #5
  125. ID : 8
  126. Format : UTF-8
  127. Codec ID : S_TEXT/UTF8
  128. Codec ID/Info : UTF-8 Plain Text
  129. Duration : 1 h 46 min
  130. Bit rate : 80 b/s
  131. Frame rate : 0.313 FPS
  132. Count of elements : 2007
  133. Stream size : 62.7 KiB (0%)
  134. Title : SDH
  135. Language : French
  136. Default : No
  137. Forced : No
  138. Text #6
  139. ID : 9
  140. Format : UTF-8
  141. Codec ID : S_TEXT/UTF8
  142. Codec ID/Info : UTF-8 Plain Text
  143. Duration : 1 h 49 min
  144. Bit rate : 57 b/s
  145. Frame rate : 0.245 FPS
  146. Count of elements : 1613
  147. Stream size : 45.8 KiB (0%)
  148. Title : Latin American
  149. Language : Spanish (Latin America)
  150. Default : No
  151. Forced : No
  152. Text #7
  153. ID : 10
  154. Format : UTF-8
  155. Codec ID : S_TEXT/UTF8
  156. Codec ID/Info : UTF-8 Plain Text
  157. Duration : 1 h 46 min
  158. Bit rate : 82 b/s
  159. Frame rate : 0.309 FPS
  160. Count of elements : 1977
  161. Stream size : 64.8 KiB (0%)
  162. Title : Latin American (SDH)
  163. Language : Spanish (Latin America)
  164. Default : No
  165. Forced : No
  166. Text #8
  167. ID : 11
  168. Format : UTF-8
  169. Codec ID : S_TEXT/UTF8
  170. Codec ID/Info : UTF-8 Plain Text
  171. Duration : 1 h 49 min
  172. Bit rate : 62 b/s
  173. Frame rate : 0.252 FPS
  174. Count of elements : 1655
  175. Stream size : 50.4 KiB (0%)
  176. Title : Brazilian
  177. Language : Portuguese (BR)
  178. Default : No
  179. Forced : No
  180. Text #9
  181. ID : 12
  182. Format : UTF-8
  183. Codec ID : S_TEXT/UTF8
  184. Codec ID/Info : UTF-8 Plain Text
  185. Duration : 1 h 46 min
  186. Bit rate : 83 b/s
  187. Frame rate : 0.313 FPS
  188. Count of elements : 2002
  189. Stream size : 65.4 KiB (0%)
  190. Title : Brazilian (SDH)
  191. Language : Portuguese (BR)
  192. Default : No
  193. Forced : No
  194. Menu
  195. 00:00:00.000 : en:Chapter 01
  196. 00:20:03.792 : en:Chapter 02
  197. 00:43:35.000 : en:Chapter 03
  198. 00:54:45.375 : en:Chapter 04
  199. 01:06:07.000 : en:Chapter 05
  200. 01:25:02.000 : en:Chapter 06
  201. 01:43:16.625 : en:Chapter 07
复制代码

高卢英雄:中国大战罗马帝国.Asterix.and.Obelix.The.Middle.Kingdom.2023.FRENCH.1080p.BluRay.x264.DTS-N ...

高卢英雄:中国大战罗马帝国.Asterix.and.Obelix.The.Middle.Kingdom.2023.FRENCH.1080p.BluRay.x264.DTS-N ...

高卢英雄:中国大战罗马帝国.Asterix.and.Obelix.The.Middle.Kingdom.2023.FRENCH.1080p.BluRay.x264.DTS-N ...

高卢英雄:中国大战罗马帝国.Asterix.and.Obelix.The.Middle.Kingdom.2023.FRENCH.1080p.BluRay.x264.DTS-N ...



蓝光高清网提示您 点击下方附件即可下载

高卢英雄:中国大战罗马帝国.Asterix.and.Obelix.The.Middle.Kingdom.2023.FRENCH.1080p.BluRay.x264.DTS-NOGRP 8.69GB

Asterix.and.Obelix.The.Middle.Kingdom.2023.FRENCH.1080p.BluRay.x264.DTS-NOGRP.torrent ( 22.41 KB )

加入蓝光高清网VIP会员  无限制下载本站所有资源---点这里

资源下载、资源播放、字幕使用、无法下载等常见问题---点这里
回复

使用道具 举报

全部回复2 显示全部楼层
YXD873627手机认证 发表于 2023-5-20 22:36:41 | 显示全部楼层
字幕找不到啊~~
回复 支持 反对

使用道具 举报

54120 发表于 2023-5-22 18:26:53 | 显示全部楼层
只差字幕了。高手
回复 支持 反对

使用道具 举报

发表回复

您需要登录后才可以回帖 登录 | 立即注册

本版积分规则

开通会员 帮助中心 返回顶部 返回列表