本站已运行

蓝光高清网

搜索

[剧情] 奎迪3.Creed.III.2023.1080p.BluRay.x264.DTS-HD.MA.7.1-MT 14.00GB

蓝鸟 发表于 2023-5-20 10:07:34 | 显示全部楼层 |阅读模式

奎迪3.Creed.III.2023.1080p.BluRay.x264.DTS-HD.MA.7.1-MT 14.00GB

奎迪3.Creed.III.2023.1080p.BluRay.x264.DTS-HD.MA.7.1-MT 14.00GB


译  名 奎迪3 / 金牌拳手3(台) / 洛奇系列:王者之后(港) / Creed 3
片  名 Creed III
年  代 2023
产  地 美国
类  别 剧情 / 运动
语  言 英语
上映日期 2023-03-01(法国) / 2023-03-03(美国)
IMDb评星  ★★★★★★★☆☆☆
IMDb评分  6.9/10 from 56,603 users
豆瓣评星 ★★★☆☆
豆瓣评分 5.8/10 from 4,288 users
片  长 116分钟
导  演 迈克尔·B·乔丹 / Michael B. Jordan
演  员 迈克尔·B·乔丹 / Michael B. Jordan | 饰 Adonis Creed
      泰莎·汤普森 / Tessa Thompson | 饰 Bianca
      乔纳森·梅杰斯 / Jonathan Majors | 饰 Damian Anderson
      菲利西亚·拉斯海德 / Phylicia Rashad | 饰 Mary Anne Creed
      伍德·哈里斯 / Wood Harris | 饰 Tony ''Little Duke'' Burton
      弗罗里安·穆特鲁 / Florian Munteanu | 饰 Viktor Drago
      安东尼·贝柳 / Anthony Bellew | 饰 ''Pretty'' Ricky Conlan
      米拉·戴维斯-肯特 / Mila Davis-Kent  | 饰 Amara Creed
      小何塞·贝纳维德斯 / Jose Benavidez  | 饰 Felix Chavez
      塞勒妮丝·雷瓦 / Selenis Leyva | 饰 Laura Chavez
      斯彭斯·摩尔二世 / Spence Moore II | 饰 Damian Anderson
      贾迈尔·钱伯斯 / Jamel Chambers | 饰 Photographer
      皮特·佩努埃尔 / Pete Penuel | 饰 Boxing Elder 2
      卡内洛·阿尔瓦雷斯 / Saúl Álvarez | 饰 Saul
编  剧 扎克·贝林 / Zach Baylin
      瑞恩·库格勒 / Ryan Coogler
      基南·库格勒 / Keenan Coogler
服  装 利兹·沃尔夫 / Lizz Wolf

简  介

你的过往是你最强的敌人!
  拳击系列电影《奎迪》第三部,迈克尔·B·乔丹继续饰演奎迪并首次担任导演。史泰龙将不再继续出演洛奇。
  阿多尼斯·奎迪(迈克尔·B·乔丹 饰)在拳击界大获成功后,事业和家庭生活都很顺利,儿时朋友达米安(乔纳森·梅杰斯 饰)这时在出狱后与他联系。达 米安过去曾是拳击天才,坐牢很久后终于出狱,现在一心想证明自己值得重新回到拳击擂台。过往的好友即将展开对决,但这不单只是一场比赛,两人还有旧账要算,阿多尼斯为此必须赌上自己的未来,因为对手达米安已经毫无顾忌。

影片参数
  1. Video
  2. ID : 1
  3. Format : AVC
  4. Format/Info : Advanced Video Codec
  5. Format profile : Hig[email protected]
  6. Format settings : CABAC / 5 Ref Frames
  7. Format settings, CABAC : Yes
  8. Format settings, Reference frames : 5 frames
  9. Codec ID : V_MPEG4/ISO/AVC
  10. Duration : 1 h 56 min
  11. Bit rate : 13.5 Mb/s
  12. Width : 1 920 pixels
  13. Height : 804 pixels
  14. Display aspect ratio : 2.40:1
  15. Frame rate mode : Constant
  16. Frame rate : 23.976 (24000/1001) FPS
  17. Color space : YUV
  18. Chroma subsampling : 4:2:0
  19. Bit depth : 8 bits
  20. Scan type : Progressive
  21. Bits/(Pixel*Frame) : 0.363
  22. Stream size : 10.9 GiB (78%)
  23. Writing library : x264 core 157 r2938 2b00a84 [email protected] Mod
  24. Encoding settings : cabac=1 / ref=5 / deblock=1:-3:-3 / analyse=0x3:0x133 / me=umh / subme=10 / psy=1 / psy_rd=1.05:0.00 / mixed_ref=1 / me_range=32 / chroma_me=1 / trellis=2 / 8x8dct=1 / cqm=0 / deadzone=21,11 / fast_pskip=0 / chroma_qp_offset=-2 / threads=12 / lookahead_threads=2 / sliced_threads=0 / nr=0 / decimate=0 / interlaced=0 / bluray_compat=0 / constrained_intra=0 / bframes=8 / b_pyramid=2 / b_adapt=2 / b_bias=0 / direct=3 / weightb=1 / open_gop=0 / weightp=2 / keyint=250 / keyint_min=24 / scenecut=40 / intra_refresh=0 / rc_lookahead=250 / rc=crf / mbtree=0 / crf=16.8 / qcomp=0.60 / qpmin=0 / qpmax=69 / qpstep=4 / vbv_maxrate=62500 / vbv_bufsize=78125 / crf_max=0.0 / nal_hrd=none / filler=0 / ip_ratio=1.30 / pb_ratio=1.20 / aq=3:0.80
  25. Language : English
  26. Default : Yes
  27. Forced : No
  28. Color range : Limited
  29. Color primaries : BT.709
  30. Matrix coefficients : BT.709
  31. Audio
  32. ID : 2
  33. Format : DTS XLL
  34. Format/Info : Digital Theater Systems
  35. Commercial name : DTS-HD Master Audio
  36. Codec ID : A_DTS
  37. Duration : 1 h 56 min
  38. Bit rate mode : Variable
  39. Bit rate : 3 732 kb/s
  40. Channel(s) : 8 channels
  41. Channel layout : C L R LFE Lb Rb Lss Rss
  42. Sampling rate : 48.0 kHz
  43. Frame rate : 93.750 FPS (512 SPF)
  44. Bit depth : 24 bits
  45. Compression mode : Lossless
  46. Stream size : 3.03 GiB (22%)
  47. Title : DTS-HD MA 7.1
  48. Language : English
  49. Default : No
  50. Forced : No
  51. Text #1
  52. ID : 3
  53. Format : UTF-8
  54. Codec ID : S_TEXT/UTF8
  55. Codec ID/Info : UTF-8 Plain Text
  56. Duration : 1 h 50 min
  57. Bit rate : 62 b/s
  58. Frame rate : 0.250 FPS
  59. Count of elements : 1661
  60. Stream size : 50.5 KiB (0%)
  61. Language : English
  62. Default : Yes
  63. Forced : No
  64. Text #2
  65. ID : 4
  66. Format : UTF-8
  67. Codec ID : S_TEXT/UTF8
  68. Codec ID/Info : UTF-8 Plain Text
  69. Duration : 1 h 51 min
  70. Bit rate : 68 b/s
  71. Frame rate : 0.271 FPS
  72. Count of elements : 1817
  73. Stream size : 55.9 KiB (0%)
  74. Title : SDH
  75. Language : English
  76. Default : No
  77. Forced : No
  78. Text #3
  79. ID : 5
  80. ID in the original source medium : 4608 (0x1200)
  81. Format : PGS
  82. Muxing mode : zlib
  83. Codec ID : S_HDMV/PGS
  84. Codec ID/Info : Picture based subtitle format used on BDs/HD-DVDs
  85. Duration : 1 h 51 min
  86. Bit rate : 42.7 kb/s
  87. Frame rate : 0.544 FPS
  88. Count of elements : 3648
  89. Stream size : 34.1 MiB (0%)
  90. Language : English
  91. Default : No
  92. Forced : No
  93. Original source medium : Blu-ray
  94. Text #4
  95. ID : 6
  96. ID in the original source medium : 4609 (0x1201)
  97. Format : PGS
  98. Muxing mode : zlib
  99. Codec ID : S_HDMV/PGS
  100. Codec ID/Info : Picture based subtitle format used on BDs/HD-DVDs
  101. Duration : 1 h 56 min
  102. Bit rate : 39.1 kb/s
  103. Frame rate : 0.423 FPS
  104. Count of elements : 2944
  105. Stream size : 32.4 MiB (0%)
  106. Language : German
  107. Default : No
  108. Forced : No
  109. Original source medium : Blu-ray
  110. Text #5
  111. ID : 7
  112. ID in the original source medium : 4610 (0x1202)
  113. Format : PGS
  114. Muxing mode : zlib
  115. Codec ID : S_HDMV/PGS
  116. Codec ID/Info : Picture based subtitle format used on BDs/HD-DVDs
  117. Duration : 1 h 55 min
  118. Bit rate : 38.1 kb/s
  119. Frame rate : 0.565 FPS
  120. Count of elements : 3912
  121. Stream size : 31.4 MiB (0%)
  122. Language : Italian
  123. Default : No
  124. Forced : No
  125. Original source medium : Blu-ray
  126. Text #6
  127. ID : 8
  128. ID in the original source medium : 4611 (0x1203)
  129. Format : PGS
  130. Muxing mode : zlib
  131. Codec ID : S_HDMV/PGS
  132. Codec ID/Info : Picture based subtitle format used on BDs/HD-DVDs
  133. Duration : 1 h 55 min
  134. Bit rate : 31.8 kb/s
  135. Frame rate : 0.449 FPS
  136. Count of elements : 3100
  137. Stream size : 26.2 MiB (0%)
  138. Language : Spanish
  139. Default : No
  140. Forced : No
  141. Original source medium : Blu-ray
  142. Menu
  143. 00:00:00.000 : en:Chapter 01
  144. 00:07:10.972 : en:Chapter 02
  145. 00:16:39.790 : en:Chapter 03
  146. 00:25:19.351 : en:Chapter 04
  147. 00:32:42.126 : en:Chapter 05
  148. 00:40:14.620 : en:Chapter 06
  149. 00:48:59.436 : en:Chapter 07
  150. 00:58:42.393 : en:Chapter 08
  151. 01:07:57.490 : en:Chapter 09
  152. 01:15:15.928 : en:Chapter 10
  153. 01:21:32.804 : en:Chapter 11
  154. 01:31:30.943 : en:Chapter 12
  155. 01:40:07.292 : en:Chapter 13
  156. 01:49:25.225 : en:Chapter 14
复制代码

奎迪3.Creed.III.2023.1080p.BluRay.x264.DTS-HD.MA.7.1-MT 14.00GB

奎迪3.Creed.III.2023.1080p.BluRay.x264.DTS-HD.MA.7.1-MT 14.00GB

奎迪3.Creed.III.2023.1080p.BluRay.x264.DTS-HD.MA.7.1-MT 14.00GB

奎迪3.Creed.III.2023.1080p.BluRay.x264.DTS-HD.MA.7.1-MT 14.00GB



蓝光高清网提示您 点击下方附件即可下载

奎迪3.Creed.III.2023.1080p.BluRay.x264.DTS-HD.MA.7.1-MT 14.00GB

Creed.III.2023.1080p.BluRay.x264.DTS-HD.MA.7.1-MT.torrent ( 18.12 KB )

加入蓝光高清网VIP会员  无限制下载本站所有资源---点这里

资源下载、资源播放、字幕使用、无法下载等常见问题---点这里
回复

使用道具 举报

全部回复0 显示全部楼层

发表回复

您需要登录后才可以回帖 登录 | 立即注册

本版积分规则

楼主

超级版主

热门推荐

开通会员 帮助中心 返回顶部 返回列表