本站已运行

蓝光高清网

搜索
开启左侧

[恐怖] 阴魂咆哮.Bones.2001.1080p.BluRay.x264-PEGASUS 11.22GB

蓝鸟 发表于 2023-5-23 11:25:34 | 显示全部楼层 |阅读模式

阴魂咆哮.Bones.2001.1080p.BluRay.x264-PEGASUS 11.22GB

阴魂咆哮.Bones.2001.1080p.BluRay.x264-PEGASUS 11.22GB


译  名 阴魂咆哮 / 追魂骸骨
片  名 Bones
年  代 2001
产  地 美国
类  别 恐怖 / 犯罪
语  言 英语 / 法语 / 西班牙语
上映日期 2001-10-24
IMDb评星  ★★★★✦☆☆☆☆☆
IMDb评分  4.4/10 from 7,877 users
豆瓣评星 ★★★☆☆
豆瓣评分 5.7/10 from 154 users
片  长 96 分钟
导  演 厄内斯特·R·迪克森 / Ernest R. Dickerson
演  员 Josh Byer Josh Byer
      史努比狗狗 / Snoop Dogg
      帕姆·格里尔 / Pam Grier
      迈克·T·维斯 / Michael T. Weiss
      凯瑟琳·伊莎贝尔 / Katharine Isabelle
      琳达·博伊德 / Lynda Boyd
      克里夫顿·鲍威尔 / Clifton Powell
      D.哈尔兰·库特沙尔 / D. Harlan Cutshall
      卡哈利·凯恩 / Khalil Kain
      热尼·勒戈恩 / Jeni Le Gon
      比安卡·劳森 / Bianca Lawson
      科尔比·莫罗 / Kirby Morrow
      柯林·富 / Colin Foo
      加里卡伊·穆塔姆比尔瓦 / Garikayi Mutambirwa
      肖恩·阿姆辛 / Sean Amsing
      Mavis D''Andrade Mavis D''Andrade
编  剧 亚当·西蒙 / Adam Simon
      蒂姆·梅特卡夫 / Tim Metcalfe
制  片  人 Rupert Harvey Rupert Harvey
音  乐 Elia Cmiral Elia Cmiral
摄  影 弗拉维奥·马丁内斯·拉比亚诺 / Flavio Martínez Labiano
剪  辑 Stephen Lovejoy Stephen Lovejoy
      Michael N. Knue Michael N. Knue
化  妆 Geoff Redknap Geoff Redknap
      托尼·加德纳 / Tony Gardner
      比尔·特雷扎基斯 / Bill Terezakis
      Michael O''Brien Michael O''Brien
      Barry R. Koper Barry R. Koper
      Connie Parker Connie Parker
      杰里·康斯坦丁 / Jerry Constantine
副  导  演 格伦·鲍特姆利 / Glenn Bottomley
      理查德·科尔曼 / Richard Coleman
      菲利普·卡契卡斯 / Philip Katsikas
      Rob Vouriot Rob Vouriot
      Peter Dashkewytch Peter Dashkewytch
      Richard Worden Richard Worden
视觉特效 伊万·海登 / Ivan Hayden
      吉姆·戈尔曼 / Jim Gorman
      雷·麦金太尔 / Ray McIntyre Jr.
      Christopher Dusendschon Christopher Dusendschon
      胡安·卡洛斯·巴尔加斯 / Juan Carlos Vargas
      George Macri George Macri
      Patrick Murphy Patrick Murphy
      托德·瓦兹里 / Todd Vaziri
      艾丽尔·维拉斯科-肖 / Ariel Velasco-Shaw
      Tim Pyle Tim Pyle
      Mike Hardison Mike Hardison

简  介

70年代,传奇人物吉米·邦兹尽职尽责地守护着一个居民区的安全。在他的蔽护下,小区内一片安宁祥和,人们对这位举止沉稳、相貌不凡的“守护神”尊崇备至。可是,邪恶无时无刻不在觊觎着这片净土。邦兹万万没有料到,与他最亲密的友人正打算在小区内大做毒品交易。由于拒绝同这伙人合作,邦兹遭到他们的背叛与杀害。
  斗转星移,日月如梭。20多年后的今天,昔日的小区在犯罪和毒品的摧折下满目疮痍。在人们的记忆里,吉米·邦兹已成为一个令人敬畏的传奇人物和象征美好时代的神灵。他生前那所富丽堂皇的住宅——他的葬身之处——依然屹立,然而已空无一人、凋敝不堪。而且房子里经常闹鬼,那些贸然闯入的人们往往一去不回,再也没见他们出来。
  也许是命中注定,背叛邦兹的朋友之一耶利米的儿子们雄心勃勃的回到小区,买下邦兹的那所哥特式建筑,打算开一家夜总会。然而,埋葬在地下室内的邦兹依然阴魂未散,多年来,这含冤之鬼一直盘踞在这座阴森、空阔的楼房里,寻找复仇的机会。兄弟俩对此一无所知,他们兴高采烈、迫不急待地搬进这所阴森的鬼屋,一心想着将它装修一新后开张大吉。
  刚一跨进门槛,一连窜匪夷所思、令人毛骨悚然事件接踵而来。不久,这伙惊魂未定的年轻人才回过神来:吉米·邦兹的鬼魂正在追寻、报复那些背叛过他的人。
  然而,邦兹阴魂的出动并非完全在于复仇,他依然念念不忘忠贞不渝的妻子珀尔以及他死后才出生的女儿辛西娅......

影片参数
  1. Video
  2. ID : 1
  3. Format : AVC
  4. Format/Info : Advanced Video Codec
  5. Format profile : [email protected]
  6. Format settings : CABAC / 5 Ref Frames
  7. Format settings, CABAC : Yes
  8. Format settings, Reference frames : 5 frames
  9. Codec ID : V_MPEG4/ISO/AVC
  10. Duration : 1 h 37 min
  11. Bit rate : 13.7 Mb/s
  12. Width : 1 920 pixels
  13. Height : 816 pixels
  14. Display aspect ratio : 2.35:1
  15. Frame rate mode : Constant
  16. Frame rate : 23.976 (24000/1001) FPS
  17. Color space : YUV
  18. Chroma subsampling : 4:2:0
  19. Bit depth : 8 bits
  20. Scan type : Progressive
  21. Bits/(Pixel*Frame) : 0.366
  22. Stream size : 9.31 GiB (83%)
  23. Writing library : x264 core 164 r3107 a8b68eb
  24. Encoding settings : cabac=1 / ref=5 / deblock=1:-3:-3 / analyse=0x3:0x133 / me=umh / subme=11 / psy=1 / psy_rd=1.02:0.00 / mixed_ref=1 / me_range=32 / chroma_me=1 / trellis=2 / 8x8dct=1 / cqm=0 / deadzone=21,11 / fast_pskip=0 / chroma_qp_offset=-2 / threads=25 / lookahead_threads=6 / sliced_threads=0 / nr=0 / decimate=0 / interlaced=0 / bluray_compat=0 / constrained_intra=0 / bframes=16 / b_pyramid=2 / b_adapt=2 / b_bias=0 / direct=3 / weightb=1 / open_gop=0 / weightp=2 / keyint=250 / keyint_min=23 / scenecut=40 / intra_refresh=0 / rc_lookahead=250 / rc=crf / mbtree=0 / crf=17.8 / qcomp=0.60 / qpmin=0 / qpmax=69 / qpstep=4 / vbv_maxrate=62500 / vbv_bufsize=78125 / crf_max=0.0 / nal_hrd=none / filler=0 / ip_ratio=1.30 / pb_ratio=1.20 / aq=3:0.80
  25. Default : Yes
  26. Forced : No
  27. Color range : Limited
  28. Color primaries : BT.709
  29. Matrix coefficients : BT.709
  30. Audio #1
  31. ID : 2
  32. Format : DTS XLL
  33. Format/Info : Digital Theater Systems
  34. Commercial name : DTS-HD Master Audio
  35. Codec ID : A_DTS
  36. Duration : 1 h 37 min
  37. Bit rate mode : Variable
  38. Bit rate : 2 697 kb/s
  39. Channel(s) : 6 channels
  40. Channel layout : C L R Ls Rs LFE
  41. Sampling rate : 48.0 kHz
  42. Frame rate : 93.750 FPS (512 SPF)
  43. Bit depth : 24 bits
  44. Compression mode : Lossless
  45. Stream size : 1.83 GiB (16%)
  46. Language : English
  47. Default : Yes
  48. Forced : No
  49. Audio #2
  50. ID : 3
  51. Format : AAC LC
  52. Format/Info : Advanced Audio Codec Low Complexity
  53. Codec ID : A_AAC-2
  54. Duration : 1 h 36 min
  55. Bit rate : 84.4 kb/s
  56. Channel(s) : 2 channels
  57. Channel layout : L R
  58. Sampling rate : 48.0 kHz
  59. Frame rate : 46.875 FPS (1024 SPF)
  60. Compression mode : Lossy
  61. Stream size : 58.6 MiB (1%)
  62. Title : Commentary with director Ernest Dickerson, writer Adam Simon, and star Snoop Dogg
  63. Language : English
  64. Default : No
  65. Forced : No
  66. Text
  67. ID : 4
  68. Format : PGS
  69. Muxing mode : zlib
  70. Codec ID : S_HDMV/PGS
  71. Codec ID/Info : Picture based subtitle format used on BDs/HD-DVDs
  72. Duration : 1 h 35 min
  73. Bit rate : 41.7 kb/s
  74. Count of elements : 2284
  75. Stream size : 28.5 MiB (0%)
  76. Language : English
  77. Default : No
  78. Forced : No
  79. Menu
  80. 00:00:00.000 : :Chapter 01
  81. 00:08:57.162 : :Chapter 02
  82. 00:19:11.442 : :Chapter 03
  83. 00:27:22.850 : :Chapter 04
  84. 00:36:00.200 : :Chapter 05
  85. 00:42:45.897 : :Chapter 06
  86. 00:48:35.746 : :Chapter 07
  87. 00:55:59.773 : :Chapter 08
  88. 01:02:48.598 : :Chapter 09
  89. 01:10:30.351 : :Chapter 10
  90. 01:21:44.691 : :Chapter 11
  91. 01:32:01.725 : :Chapter 12
复制代码

阴魂咆哮.Bones.2001.1080p.BluRay.x264-PEGASUS 11.22GB

阴魂咆哮.Bones.2001.1080p.BluRay.x264-PEGASUS 11.22GB



蓝光高清网提示您 点击下方附件即可下载

阴魂咆哮.Bones.2001.1080p.BluRay.x264-PEGASUS 11.22GB

Bones.2001.1080p.BluRay.x264-PEGASUS.torrent ( 14.73 KB )

加入蓝光高清网VIP会员  无限制下载本站所有资源---点这里

资源下载、资源播放、字幕使用、无法下载等常见问题---点这里
回复

使用道具 举报

全部回复0 显示全部楼层

发表回复

您需要登录后才可以回帖 登录 | 立即注册

本版积分规则

开通会员 帮助中心 返回顶部 返回列表