本站已运行

蓝光高清网

搜索
开启左侧

坏教育 4k.Bad.Education.2019.2160p.MAX.WEB-DL.x265.10bit.HDR.DTS-HD.MA.5.1.x265-4k电影下载

蓝鸟 发表于 2023-5-25 10:22:26 | 显示全部楼层 |阅读模式
坏教育 豆瓣评分: 7.2分
上映时间:2019年        影片时长:109分钟
类型:喜剧 剧情 犯罪 传记 
地区:美国 
导演:科瑞·芬莱
主演:休·杰克曼 / 艾莉森·珍妮 / 杰拉尔丁·维斯瓦纳坦 / 亚历克斯·沃尔夫 / 安娜莱吉·阿什福特
画质标准:4K HDR  封装音轨:DTS-HD.MA 5.1 
  • 电影下载
  • 影片简介
  • 影片参数
  • 下载说明
  • 网盘/云盘/BT 下载 Cloud storage / Cloud disk / BT download
  • 《坏教育》剧情简介 Film Introduction
      弗兰克(休·杰克曼 Hugh Jackman 饰)是美国纽约州长岛公立学校的负责人,在他和同事帕姆(阿丽森·詹尼 Allison Janney 饰)的努力之下,纽约罗斯林学区的升学率得到了全美排名第四的好成绩。弗兰克的出名不仅让学校变得炙手可热,同时也带动了学校周边的学区房房价一路上涨。
      瑞秋(杰拉尔丁·维斯瓦纳森 Geraldine Viswanathan 饰)是罗斯林高中的一名学生,某日,在撰写校刊报道时,她震惊的发现学校的账目漏洞百出,不仅仅是校长,学校的整个领导阶层都在肆意的挪用着董事会的拨款,去满足他们无限膨胀的物欲。随着调查的深入,一场涉案金额极高、涉事人员众多的贪污案浮出了水面。


    网盘/云盘/BT 下载 Cloud storage / Cloud disk / BT download
  • 《坏教育》影片INFO Video INFO
    Video
    ID : 1
    Format : HEVC
    Format/Info : High Efficiency Video Coding
    Format profile : Main 10@L5.1@Main
    HDR format : Dolby Vision, Version 1.0, dvhe.08.06, BL+RPU, HDR10 compatible / SMPTE ST 2086, HDR10 compatible
    Codec ID : V_MPEGH/ISO/HEVC
    Duration : 1 h 48 min
    Bit rate : 20.6 Mb/s
    Width : 3 840 pixels
    Height : 1 608 pixels
    Display aspect ratio : 2.40:1
    Frame rate mode : Constant
    Frame rate : 23.976 (24000/1001) FPS
    Color space : YUV
    Chroma subsampling : 4:2:0 (Type 0)
    Bit depth : 10 bits
    Bits/(Pixel*Frame) : 0.139
    Stream size : 15.6 GiB (88%)
    Writing library : x265 3.5+1-f0c1022b6:[Linux][GCC 10.2.1][64 bit] 10bit
    Encoding settings : cpuid=1111039 / frame-threads=5 / wpp / no-pmode / no-pme / psnr / ssim / log-level=2 / input-csp=1 / input-res=3840x1608 / interlace=0 / total-frames=0 / level-idc=0 / high-tier=0 / uhd-bd=0 / ref=3 / no-allow-non-conformance / repeat-headers / annexb / aud / no-eob / no-eos / hrd / info / hash=0 / no-temporal-layers / no-open-gop / min-keyint=96 / keyint=96 / gop-lookahead=0 / bframes=4 / b-adapt=2 / b-pyramid / bframe-bias=0 / rc-lookahead=96 / lookahead-slices=8 / scenecut=40 / no-hist-scenecut / radl=0 / no-splice / no-intra-refresh / ctu=64 / min-cu-size=8 / no-rect / no-amp / max-tu-size=32 / tu-inter-depth=1 / tu-intra-depth=1 / limit-tu=0 / rdoq-level=0 / dynamic-rd=0.00 / no-ssim-rd / signhide / no-tskip / nr-intra=0 / nr-inter=0 / no-constrained-intra / strong-intra-smoothing / max-merge=3 / limit-refs=1 / no-limit-modes / me=1 / subme=2 / merange=57 / temporal-mvp / no-frame-dup / no-hme / weightp / weightb / no-analyze-src-pics / deblock=0:0 / no-sao / no-sao-non-deblock / rd=3 / selective-sao=0 / early-skip / rskip / no-fast-intra / no-tskip-fast / no-cu-lossless / b-intra / no-splitrd-skip / rdpenalty=0 / psy-rd=2.00 / psy-rdoq=0.00 / no-rd-refine / no-lossless / cbqpoffs=0 / crqpoffs=0 / rc=crf / crf=10.0 / qcomp=0.60 / qpstep=4 / stats-write=0 / stats-read=0 / vbv-maxrate=21900 / vbv-bufsize=40000 / vbv-init=0.9 / min-vbv-fullness=50.0 / max-vbv-fullness=80.0 / crf-max=0.0 / crf-min=0.0 / ipratio=1.40 / pbratio=1.30 / aq-mode=2 / aq-strength=1.00 / cutree / zone-count=0 / no-strict-cbr / qg-size=32 / no-rc-grain / qpmax=69 / qpmin=0 / no-const-vbv / sar=1 / overscan=0 / videoformat=5 / range=0 / colorprim=9 / transfer=16 / colormatrix=9 / chromaloc=1 / chromaloc-top=0 / chromaloc-bottom=0 / display-window=0 / master-display=G(13250,34500)B(7500,3000)R(34000,16000)WP(15635,16450)L(10000000,1) / cll=900,62 / min-luma=0 / max-luma=1023 / log2-max-poc-lsb=8 / vui-timing-info / vui-hrd-info / slices=1 / no-opt-qp-pps / no-opt-ref-list-length-pps / no-multi-pass-opt-rps / scenecut-bias=0.05 / hist-threshold=0.03 / no-opt-cu-delta-qp / no-aq-motion / hdr10 / hdr10-opt / no-dhdr10-opt / no-idr-recovery-sei / analysis-reuse-level=0 / analysis-save-reuse-level=0 / analysis-load-reuse-level=0 / scale-factor=0 / refine-intra=0 / refine-inter=0 / refine-mv=1 / refine-ctu-distortion=0 / no-limit-sao / ctu-info=0 / no-lowpass-dct / refine-analysis-type=0 / copy-pic=1 / max-ausize-factor=1.0 / no-dynamic-refine / no-single-sei / no-hevc-aq / no-svt / no-field / qp-adaptation-range=1.00 / scenecut-aware-qp=0conformance-window-offsets / right=0 / bottom=0 / decoder-max-rate=0 / no-vbv-live-multi-pass
    Language : English
    Default : Yes
    Forced : No
    Color range : Limited
    Color primaries : BT.2020
    Transfer characteristics : PQ
    Matrix coefficients : BT.2020 non-constant
    Mastering display color primaries : Display P3
    Mastering display luminance : min: 0.0001 cd/m2, max: 1000 cd/m2
    Maximum Content Light Level : 900 cd/m2
    Maximum Frame-Average Light Level : 62 cd/m2

    Audio #1
    ID : 2
    Format : DTS XLL
    Format/Info : Digital Theater Systems
    Commercial name : DTS-HD Master Audio
    Codec ID : A_DTS
    Duration : 1 h 48 min
    Bit rate mode : Variable
    Bit rate : 2 109 kb/s
    Channel(s) : 6 channels
    Channel layout : C L R Ls Rs LFE
    Sampling rate : 48.0 kHz
    Frame rate : 93.750 FPS (512 SPF)
    Bit depth : 16 bits
    Compression mode : Lossless
    Stream size : 1.60 GiB (9%)
    Language : English (US)
    Default : Yes
    Forced : No

    Audio #2
    ID : 3
    Format : AC-3
    Format/Info : Audio Coding 3
    Commercial name : Dolby Digital
    Codec ID : A_AC3
    Duration : 1 h 48 min
    Bit rate mode : Constant
    Bit rate : 640 kb/s
    Channel(s) : 6 channels
    Channel layout : L R C LFE Ls Rs
    Sampling rate : 48.0 kHz
    Frame rate : 31.250 FPS (1536 SPF)
    Compression mode : Lossy
    Stream size : 497 MiB (3%)
    Language : English
    Service kind : Complete Main
    Default : No
    Forced : No

    Text #1
    ID : 4
    Format : UTF-8
    Codec ID : S_TEXT/UTF8
    Codec ID/Info : UTF-8 Plain Text
    Duration : 1 h 45 min
    Bit rate : 72 b/s
    Frame rate : 0.274 FPS
    Count of elements : 1732
    Stream size : 56.1 KiB (0%)
    Language : English (US)
    Default : No
    Forced : No

    Text #2
    ID : 5
    Format : UTF-8
    Codec ID : S_TEXT/UTF8
    Codec ID/Info : UTF-8 Plain Text
    Duration : 1 h 47 min
    Bit rate : 75 b/s
    Frame rate : 0.296 FPS
    Count of elements : 1906
    Stream size : 59.7 KiB (0%)
    Title : SDH
    Language : English (US)
    Default : No
    Forced : No

    Text #3
    ID : 6
    Format : UTF-8
    Codec ID : S_TEXT/UTF8
    Codec ID/Info : UTF-8 Plain Text
    Duration : 1 h 41 min
    Bit rate : 76 b/s
    Frame rate : 0.253 FPS
    Count of elements : 1546
    Stream size : 56.8 KiB (0%)
    Title : Latin American
    Language : Spanish (Latin America)
    Default : No
    Forced : No

    Text #4
    ID : 7
    Format : UTF-8
    Codec ID : S_TEXT/UTF8
    Codec ID/Info : UTF-8 Plain Text
    Duration : 1 h 42 min
    Bit rate : 78 b/s
    Frame rate : 0.264 FPS
    Count of elements : 1619
    Stream size : 58.6 KiB (0%)
    Title : Latin American (SDH)
    Language : Spanish (Latin America)
    Default : No
    Forced : No

    Menu
    00:00:00.000 : en:Chapter 01
    00:09:30.922 : en:Chapter 02
    00:17:51.839 : en:Chapter 03
    00:27:00.679 : en:Chapter 04
    00:36:52.561 : en:Chapter 05
    00:46:29.596 : en:Chapter 06
    00:55:44.651 : en:Chapter 07
    01:04:48.444 : en:Chapter 08
    01:13:19.663 : en:Chapter 09
    01:21:37.952 : en:Chapter 10
    01:30:58.137 : en:Chapter 11
    01:37:21.311 : en:Chapter 12
    01:42:29.702 : en:Chapter 13



    网盘/云盘/BT 下载 Cloud storage / Cloud disk / BT download
  • 下载电影三步骤
    1、在《4K电影列表》找到并打开电影详情页,点击BT种子文件或复制磁力链,将BT种子下载到电脑中。
    2、电脑安装《BT下载软件》,免费的推荐使用《UTorrent》下载,收费的推荐使用《115网盘》下载(速度又快又稳).
    3、用BT下载软件,打开BT种子、或将磁力链复制粘贴到BT软件中即可下载。


    本站4K电影版块资源99%是真4K,都是从UHD蓝光碟片中提取而来!本站未发布的4K资源,全网都没有(除非假4K),所以发帖求资源也没用。

    下载速度慢怎么办
    1、正常情况使用《UTorrent》跟着网站发布资源节奏下载速度很快,可以达到宽带最大速度(电信)
    2、推荐使用《115网盘》下载速度又快又稳定,请勿使用迅雷下载;
    3、下载慢是有多方面原因,即依赖种子的热度、也要求是电信宽带(非移动/联通),同时选择对的下载软件和软件设置方法。
    4、使用BT协议下载没有速度,请更新《Trackers服务器》能够增加在线用户(越多越好),该方法使用《UTorrent》下载效果显著。
    更多下载问题参考: 4K电影下载新手学院>>

    多个种子/电影版本区别
    蓝光原盘BDMV
    俗称4K蓝光原盘,也就是从4K UHD蓝光碟中提取出来的源文件,由多个m2ts文件组成,与正版盘完全一致,且包含了光盘所有内容 (影片花絮、字幕、导航菜单、多语言多音轨、HDR 信息)等等,文件体积大,一部电影约有60GB+。此版本资源一般以「BDMV 文件夹」或「BDISO」 (iso) 格式发布;该版本可以用刻录机成带导航的光盘效果。

    DIY蓝光原盘BDMV
    经资源制作组基于蓝光原盘BDMV版本进行第二次DIY的版本,将片头AE特效、画面HDR调色、封装国语音轨、封装中文简体/繁体/英文等多语言字幕,更精彩的是是特效字幕(将电影画面中某些细节翻译成中文字幕)。

    蓝光BD-REMUX
    俗称REMUX,可以视为「音画质无损的精简版」"4K原盘",它其实就是将原盘里多余的一些音轨、花絮、菜单、字幕等东西移除或精简,仅保留主要的视频、主要音轨和部分语言字幕,然后再封装成「单个文件」的 .mkv 格式而来,其音质画质与BDMV蓝光原盘一致,但文件体积上能大幅缩减且成单个文件,在电脑上播放/管理/电视播放/播放器播放和分享起来也更方便。适合追求原盘音画质、不重视花絮周边内容、又希望稍微节省点硬盘空间的朋友。

    WEB-DL/WEBRip/流媒体版本
    WEB-DL 或 WEBRip 格式的影片主要来自 、Amazon Prime Video、Netflix、Hulu、YouTube 等「在线网络高清片源」。尽管这些服务提供了4K分辨率 (部分含 HDR) 的片源,但它们为了在线观看的流畅性,都会将视频画质进行较大幅度「有损压缩」。 WEB-DL 是 Web Download 的意思,指通过技术手段「直接下载」回来的在线视频 WEBRip 很多时候则是通过"屏幕转录"等方式二次录制,会造成多一次的画质损失。



    网盘/云盘/BT 下载 Cloud storage / Cloud disk / BT download
坏教育4k.Bad.Education.2019.2160p.MAX.WEB-DL.x265.10bit.HDR.DTS-HD.MA.5.1.x265-4k电影下载

坏教育4k.Bad.Education.2019.2160p.MAX.WEB-DL.x265.10bit.HDR.DTS-HD.MA.5.1.x265【17.71 GB】

Bad.Education.2020.2160p.MAX.WEB-DL.x265.10bit.HDR.DTS-HD.MA.5.1.x265-NOGRP.torrent ( 22.54 KB )


坏教育4k.Bad.Education.2019.2160p.MAX.WEB-DL.DTS-HD.MA.5.1.DV.MKV.x265【杜比视界】【17.71 GB】

Bad.Education.2020.2160p.MAX.WEB-DL.DTS-HD.MA.5.1.DV.MKV.x265-DVSUX.torrent ( 22.5 KB )


坏教育4k.Bad.Education.2019.2160p.MAX.WEB-DL.DD5.1.DV.MP4.x265【杜比视界】【16.10 GB】

Bad.Education.2020.2160p.MAX.WEB-DL.DD5.1.DV.MP4.x265-DVSUX.torrent ( 20.49 KB )


坏教育4k电影中文字幕下载

坏教育【YYeTs字幕组 简繁英双语字幕】Bad.Education.2019.1080p.WEB.H264-SECRECY.zip ( 469.56 KB )


https://www.4kii.com/thread-119990-1-1.html

加入蓝光高清网VIP会员  无限制下载本站所有资源---点这里

资源下载、资源播放、字幕使用、无法下载等常见问题---点这里
回复

使用道具 举报

全部回复0 显示全部楼层

发表回复

您需要登录后才可以回帖 登录 | 立即注册

本版积分规则

开通会员 帮助中心 返回顶部 返回列表