本站已运行

蓝光高清网

搜索

[剧情] 盲证.The.Blind.2023.1080p.BluRay.AVC.DTS-HD.MA.5.1.x264-PANAM 5.16GB

蓝鸟 发表于 2023-11-28 17:08:05 | 显示全部楼层 |阅读模式

盲证.The.Blind.2023.1080p.BluRay.AVC.DTS-HD.MA.5.1.x264-PANAM 5.16GB

盲证.The.Blind.2023.1080p.BluRay.AVC.DTS-HD.MA.5.1.x264-PANAM 5.16GB


译  名 盲证
片  名 The Blind
年  代 2023
产  地 美国
类  别 剧情
语  言 英语
上映日期 2023-09-28(美国)
IMDb评星  ★★★★★★☆☆☆☆
IMDb评分  6.0/10 from 1,380 users
片  长 108分钟
导  演 安德鲁·海特 / Andrew Hyatt
演  员 阿隆·冯·安德里安 / Aron von Andrian | 饰 Phil Robertson
      阿梅利亚·伊芙 / Amelia Eve | 饰 Kay Robertson
      马修·埃里克·怀特 / Matthew Erick White | 饰 Phil Robertson
      布里埃尔·罗比拉德 / Brielle Robillard | 饰 Kay Robertson
      康纳·提尔曼 / Connor Tillman | 饰 Big Al Bolen
      约翰·阿勒斯 / John Ales | 饰 Pastor Smith
      罗南·卡罗尔 / Ronan Carroll | 饰 Phil
      斯嘉丽·阿宾南特 / Scarlett Abinante | 饰 Kay
      凯丽·科纳佩 / Kerry Knuppe | 饰 Merritt Robertson
      亚伦·达拉·维拉 / Aaron Dalla Villa | 饰 Si Robertson
      艾米莉·德弗莱斯特 / Emily DeForest | 饰 Jan
      克林特·詹姆斯 / Clint James | 饰 James Robertson
      格兰特·戴维森 / Grant Davidson | 饰 Si
      布拉舍·拉塞尔 / Brasher Russell | 饰 Si Robertson
      索菲亚·索拉诺·泽维尔 / Sofia Sorano Xavier | 饰 Jan
      埃兹拉·杜瓦尔 / Ezra DuVall | 饰 Jan
       惠特尼·戈因 Whitney Goin | 饰 Wanita Carroway
      汤姆·麦卡弗蒂 / Tom McCafferty | 饰 Willie Carroway
      托德·特里 / Todd Terry | 饰 LA Tech Coach
      杰克逊·迪恩·文森特 / Jackson Dean Vincent | 饰 Alan Robertson
      索耶·赫塞·米克松 / Sawyer Jesse Mixon | 饰 Jase
      罗伊尔·艾伦 / Royal Allen | 饰 Jim Perkins
      朱莉安娜·赫林 / Juliana Herrin | 饰 Carrie
      凯琳·威尔金斯 / Kaelyn Wilkins | 饰 Elizabeth
      弗内·尤因 / Vernae Ewing | 饰 Evelyn
编  剧 安德鲁·海特 / Andrew Hyatt
      斯蒂芬妮·卡茨 / Stephanie Katz

简  介

在20世纪60年代的南方腹地,一名男子在与自己过去的耻辱作斗争的同时,作为一名丈夫和父亲,他在自己的酗酒和复杂的家庭动态中挣扎。

影片参数
  1. General
  2. Unique ID                                : 130891874714380658945801485834919007457 (0x6278DBAC5F478C3CA91345287E3ED4E1)
  3. Complete name                            : D:\The.Blind.2023.1080p.BluRay.AVC.DTS-HD.MA.5.1.x264-PANAM.mkv
  4. Format                                   : Matroska
  5. Format version                           : Version 4
  6. File size                                : 5.16 GiB
  7. Duration                                 : 1 h 49 min
  8. Overall bit rate                         : 6 734 kb/s
  9. Frame rate                               : 23.976 FPS
  10. Movie name                               : The Blind (2023)
  11. Encoded date                             : 2023-11-24 18:28:46 UTC
  12. Writing application                      : mkvmerge v75.0.0 (''Goliath'') 64-bit
  13. Writing library                          : libebml v1.4.4 + libmatroska v1.7.1
  14. Video
  15. ID                                       : 1
  16. Format                                   : AVC
  17. Format/Info                              : Advanced Video Codec
  18. Format profile                           : High@L4.1
  19. Format settings                          : CABAC / 4 Ref Frames
  20. Format settings, CABAC                   : Yes
  21. Format settings, Reference frames        : 4 frames
  22. Codec ID                                 : V_MPEG4/ISO/AVC
  23. Duration                                 : 1 h 49 min
  24. Bit rate                                 : 5 198 kb/s
  25. Width                                    : 1 920 pixels
  26. Height                                   : 1 080 pixels
  27. Display aspect ratio                     : 16:9
  28. Frame rate mode                          : Constant
  29. Frame rate                               : 23.976 (24000/1001) FPS
  30. Color space                              : YUV
  31. Chroma subsampling                       : 4:2:0
  32. Bit depth                                : 8 bits
  33. Scan type                                : Progressive
  34. Bits/(Pixel*Frame)                       : 0.105
  35. Stream size                              : 3.98 GiB (77%)
  36. Writing library                          : x264 core 164 r3144+1M 1606929
  37. Encoding settings                        : cabac=1 / ref=4 / deblock=1:-1:-1 / analyse=0x3:0x133 / me=umh / subme=10 / psy=1 / psy_rd=1.00:0.15 / mixed_ref=1 / me_range=24 / chroma_me=1 / trellis=2 / 8x8dct=1 / cqm=0 / deadzone=21,11 / fast_pskip=1 / chroma_qp_offset=-3 / threads=34 / lookahead_threads=5 / sliced_threads=0 / nr=0 / decimate=1 / interlaced=0 / bluray_compat=0 / constrained_intra=0 / bframes=8 / b_pyramid=2 / b_adapt=2 / b_bias=0 / direct=3 / weightb=1 / open_gop=1 / weightp=2 / keyint=240 / keyint_min=23 / scenecut=40 / intra_refresh=0 / rc_lookahead=60 / rc=crf / mbtree=1 / crf=20.0 / qcomp=0.60 / qpmin=0 / qpmax=69 / qpstep=4 / ip_ratio=1.40 / aq=1:1.00
  38. Default                                  : Yes
  39. Forced                                   : No
  40. Color range                              : Limited
  41. Color primaries                          : BT.709
  42. Transfer characteristics                 : BT.709
  43. Matrix coefficients                      : BT.709
  44. Audio
  45. ID                                       : 2
  46. Format                                   : DTS
  47. Format/Info                              : Digital Theater Systems
  48. Codec ID                                 : A_DTS
  49. Duration                                 : 1 h 49 min
  50. Bit rate mode                            : Constant
  51. Bit rate                                 : 1 509 kb/s
  52. Channel(s)                               : 6 channels
  53. Channel layout                           : C L R Ls Rs LFE
  54. Sampling rate                            : 48.0 kHz
  55. Frame rate                               : 93.750 FPS (512 SPF)
  56. Bit depth                                : 24 bits
  57. Compression mode                         : Lossy
  58. Stream size                              : 1.16 GiB (22%)
  59. Language                                 : English
  60. Default                                  : Yes
  61. Forced                                   : No
  62. Text
  63. ID                                       : 3
  64. Format                                   : PGS
  65. Codec ID                                 : S_HDMV/PGS
  66. Codec ID/Info                            : Picture based subtitle format used on BDs/HD-DVDs
  67. Duration                                 : 1 h 49 min
  68. Bit rate                                 : 24.5 kb/s
  69. Frame rate                               : 0.564 FPS
  70. Count of elements                        : 3707
  71. Stream size                              : 19.2 MiB (0%)
  72. Title                                    : English
  73. Language                                 : English
  74. Default                                  : Yes
  75. Forced                                   : No
复制代码



蓝光高清网提示您 点击下方附件即可下载

盲证.The.Blind.2023.1080p.BluRay.AVC.DTS-HD.MA.5.1.x264-PANAM 5.16GB

The.Blind.2023.1080p.BluRay.AVC.DTS-HD.MA.5.1.x264-PANAM.torrent ( 26.37 KB )

加入蓝光高清网VIP会员  无限制下载本站所有资源---点这里

资源下载、资源播放、字幕使用、无法下载等常见问题---点这里
回复

使用道具 举报

全部回复3 显示全部楼层
wrs123手机认证 发表于 2023-11-29 10:44:46 | 显示全部楼层
每日签到,领取奖励,记录点滴,成为签到达人!
回复 支持 反对

使用道具 举报

儿阿憋手机认证 发表于 2023-12-31 23:08:00 | 显示全部楼层
论坛资源丰富多彩,坚持签到,谢谢分享啊
回复 支持 反对

使用道具 举报

儿阿憋手机认证 发表于 2024-1-16 05:02:15 | 显示全部楼层
新手签到,谢谢论坛分享丰富的电影资源,坚持每天认真回帖。
回复 支持 反对

使用道具 举报

发表回复

您需要登录后才可以回帖 登录 | 立即注册

本版积分规则

开通会员 帮助中心 返回顶部 返回列表