本站已运行

蓝光高清网

搜索

毁灭之路4k.Road.to.Perdition.2002.2160p.Ai-Upscaled.DTS-HD.MA.5.1.10Bit.H265-DirtyHippie.rife4.14-4k电影下载

蓝鸟 发表于 2024-1-14 15:08:14 | 显示全部楼层 |阅读模式
毁灭之路 (00年代) 豆瓣评分: 7.7分
时长:117 分钟
地区:美国 
类型:剧情 惊悚 犯罪 
画质:4K 
帧率:24FPS
音轨:DTS-HD.MA 5.1 
导演:萨姆·门德斯
主演:汤姆·汉克斯 / 保罗·纽曼 / 裘德·洛 / 丹尼尔·克雷格 / 泰勒·霍奇林
  • 电影下载
  • 影片简介
  • 影片参数
  • 下载说明
  • 《毁灭之路》网盘资源  Cloud storage download


    访问密码
      
    中文字幕


    《毁灭之路》BT 下载 推荐使用【迅雷云盘离线下载】【比特彗星】下载
  • 《毁灭之路》剧情简介 Film Introduction
      迈克尔(汤姆•汉克斯 Tom Hanks 饰)是美国芝加哥一个黑帮老大鲁尼的养子,他一直是鲁尼得力的左右手――帮派中令人恐惧的杀手“死亡天使”。迈克尔虽然杀人不眨眼,但现实中却是一个温文尔雅,烟酒不沾的好丈夫、好父亲。他的两个儿子一直都不知道父亲的职业,直到大儿子小迈克尔12岁了。一天他偷溜进父亲的汽车决定探知父亲的职业。
      小迈克尔目睹了一起杀人案,他的行为也被帮会知悉了。帮会怕他走漏风声,然而迈克尔却以“他是我的儿子”为由保证他一定不会走漏消息。然而,迈克尔的妻子和他的小儿子却遭帮会误杀了,他们本来的目标是他和小迈克尔。父子两开始了亡命天涯和复仇之路!


    《毁灭之路》BT 下载 推荐使用【迅雷云盘离线下载】【比特彗星】下载
  • 《毁灭之路》影片INFO Video INFO
    Video
    ID : 1
    Format : HEVC
    Format/Info : High Efficiency Video Coding
    Format profile : Main 10@L5.1@Main
    Codec ID : V_MPEGH/ISO/HEVC
    Duration : 1 h 57 min
    Bit rate : 11.9 Mb/s
    Width : 3 840 pixels
    Height : 2 144 pixels
    Display aspect ratio : 16:9
    Active width : 3 837 pixels
    Active height : 1 633 pixels
    Active display aspect ratio : 2.35:1
    Frame rate mode : Variable
    Frame rate : 59.940 FPS
    Original frame rate : 59.524 FPS
    Color space : YUV
    Chroma subsampling : 4:2:0
    Bit depth : 10 bits
    Bits/(Pixel*Frame) : 0.024
    Stream size : 9.69 GiB (69%)
    Language : English
    Default : No
    Forced : No
    Color range : Limited
    Matrix coefficients : BT.709

    Audio #1
    ID : 2
    Format : DTS XLL
    Format/Info : Digital Theater Systems
    Commercial name : DTS-HD Master Audio
    Codec ID : A_DTS
    Duration : 1 h 57 min
    Bit rate mode : Variable
    Bit rate : 4 606 kb/s
    Channel(s) : 6 channels
    Channel layout : C L R Ls Rs LFE
    Sampling rate : 48.0 kHz
    Frame rate : 93.750 FPS (512 SPF)
    Bit depth : 24 bits
    Compression mode : Lossless
    Stream size : 3.77 GiB (27%)
    Title : DTS-HD MA 5.1
    Language : English
    Default : Yes
    Forced : No

    Audio #2
    ID : 3
    Format : AC-3
    Format/Info : Audio Coding 3
    Commercial name : Dolby Digital
    Codec ID : A_AC3
    Duration : 1 h 57 min
    Bit rate mode : Constant
    Bit rate : 224 kb/s
    Channel(s) : 2 channels
    Channel layout : L R
    Sampling rate : 48.0 kHz
    Frame rate : 31.250 FPS (1536 SPF)
    Compression mode : Lossy
    Stream size : 188 MiB (1%)
    Title : Commentary by Director Sam Mendes
    Language : English
    Service kind : Complete Main
    Default : No
    Forced : No

    Text #1
    ID : 4
    Format : PGS
    Muxing mode : zlib
    Codec ID : S_HDMV/PGS
    Codec ID/Info : Picture based subtitle format used on BDs/HD-DVDs
    Duration : 1 h 50 min
    Bit rate : 22.7 kb/s
    Frame rate : 0.229 FPS
    Count of elements : 1522
    Stream size : 18.0 MiB (0%)
    Title : English
    Language : English
    Default : No
    Forced : No

    Text #2
    ID : 5
    Format : PGS
    Muxing mode : zlib
    Codec ID : S_HDMV/PGS
    Codec ID/Info : Picture based subtitle format used on BDs/HD-DVDs
    Duration : 1 h 51 min
    Bit rate : 25.1 kb/s
    Frame rate : 0.261 FPS
    Count of elements : 1746
    Stream size : 20.0 MiB (0%)
    Title : English (SDH)
    Language : English
    Default : No
    Forced : No

    Text #3
    ID : 6
    Format : PGS
    Muxing mode : zlib
    Codec ID : S_HDMV/PGS
    Codec ID/Info : Picture based subtitle format used on BDs/HD-DVDs
    Duration : 1 h 50 min
    Bit rate : 19.3 kb/s
    Frame rate : 0.244 FPS
    Count of elements : 1622
    Stream size : 15.3 MiB (0%)
    Title : French
    Language : French
    Default : No
    Forced : No

    Text #4
    ID : 7
    Format : PGS
    Muxing mode : zlib
    Codec ID : S_HDMV/PGS
    Codec ID/Info : Picture based subtitle format used on BDs/HD-DVDs
    Duration : 1 h 50 min
    Bit rate : 20.8 kb/s
    Frame rate : 0.251 FPS
    Count of elements : 1672
    Stream size : 16.5 MiB (0%)
    Title : Spanish (Latin American)
    Language : Spanish
    Default : No
    Forced : No

    Text #5
    ID : 8
    Format : PGS
    Muxing mode : zlib
    Codec ID : S_HDMV/PGS
    Codec ID/Info : Picture based subtitle format used on BDs/HD-DVDs
    Duration : 1 h 55 min
    Bit rate : 18.9 kb/s
    Frame rate : 0.217 FPS
    Count of elements : 1500
    Stream size : 15.6 MiB (0%)
    Title : German
    Language : German
    Default : No
    Forced : No

    Text #6
    ID : 9
    Format : PGS
    Muxing mode : zlib
    Codec ID : S_HDMV/PGS
    Codec ID/Info : Picture based subtitle format used on BDs/HD-DVDs
    Duration : 1 h 55 min
    Bit rate : 14.9 kb/s
    Frame rate : 0.169 FPS
    Count of elements : 1172
    Stream size : 12.3 MiB (0%)
    Title : Dutch
    Language : Dutch
    Default : No
    Forced : No

    Text #7
    ID : 10
    Format : PGS
    Muxing mode : zlib
    Codec ID : S_HDMV/PGS
    Codec ID/Info : Picture based subtitle format used on BDs/HD-DVDs
    Duration : 1 h 55 min
    Bit rate : 14.6 kb/s
    Frame rate : 0.216 FPS
    Count of elements : 1492
    Stream size : 12.0 MiB (0%)
    Title : Bulgarian
    Language : Bulgarian
    Default : No
    Forced : No

    Text #8
    ID : 11
    Format : PGS
    Muxing mode : zlib
    Codec ID : S_HDMV/PGS
    Codec ID/Info : Picture based subtitle format used on BDs/HD-DVDs
    Duration : 1 h 55 min
    Bit rate : 13.8 kb/s
    Frame rate : 0.215 FPS
    Count of elements : 1488
    Stream size : 11.4 MiB (0%)
    Title : Czech
    Language : Czech
    Default : No
    Forced : No

    Text #9
    ID : 12
    Format : PGS
    Muxing mode : zlib
    Codec ID : S_HDMV/PGS
    Codec ID/Info : Picture based subtitle format used on BDs/HD-DVDs
    Duration : 1 h 55 min
    Bit rate : 15.4 kb/s
    Frame rate : 0.214 FPS
    Count of elements : 1482
    Stream size : 12.7 MiB (0%)
    Title : Greek
    Language : Greek
    Default : No
    Forced : No

    Text #10
    ID : 13
    Format : PGS
    Muxing mode : zlib
    Codec ID : S_HDMV/PGS
    Codec ID/Info : Picture based subtitle format used on BDs/HD-DVDs
    Duration : 1 h 55 min
    Bit rate : 13.6 kb/s
    Frame rate : 0.212 FPS
    Count of elements : 1470
    Stream size : 11.3 MiB (0%)
    Title : Hungarian
    Language : Hungarian
    Default : No
    Forced : No

    Text #11
    ID : 14
    Format : PGS
    Muxing mode : zlib
    Codec ID : S_HDMV/PGS
    Codec ID/Info : Picture based subtitle format used on BDs/HD-DVDs
    Duration : 1 h 55 min
    Bit rate : 11.9 kb/s
    Frame rate : 0.215 FPS
    Count of elements : 1490
    Stream size : 9.82 MiB (0%)
    Title : Hebrew
    Language : Hebrew
    Default : No
    Forced : No

    Text #12
    ID : 15
    Format : PGS
    Muxing mode : zlib
    Codec ID : S_HDMV/PGS
    Codec ID/Info : Picture based subtitle format used on BDs/HD-DVDs
    Duration : 1 h 55 min
    Bit rate : 12.6 kb/s
    Frame rate : 0.215 FPS
    Count of elements : 1490
    Stream size : 10.4 MiB (0%)
    Title : Polish
    Language : Polish
    Default : No
    Forced : No

    Text #13
    ID : 16
    Format : PGS
    Muxing mode : zlib
    Codec ID : S_HDMV/PGS
    Codec ID/Info : Picture based subtitle format used on BDs/HD-DVDs
    Duration : 1 h 55 min
    Bit rate : 15.3 kb/s
    Frame rate : 0.214 FPS
    Count of elements : 1484
    Stream size : 12.6 MiB (0%)
    Title : Portuguese (Iberian)
    Language : Portuguese
    Default : No
    Forced : No

    Text #14
    ID : 17
    Format : PGS
    Muxing mode : zlib
    Codec ID : S_HDMV/PGS
    Codec ID/Info : Picture based subtitle format used on BDs/HD-DVDs
    Duration : 1 h 55 min
    Bit rate : 14.5 kb/s
    Frame rate : 0.214 FPS
    Count of elements : 1482
    Stream size : 12.0 MiB (0%)
    Title : Romanian
    Language : Romanian
    Default : No
    Forced : No

    Text #15
    ID : 18
    Format : PGS
    Muxing mode : zlib
    Codec ID : S_HDMV/PGS
    Codec ID/Info : Picture based subtitle format used on BDs/HD-DVDs
    Duration : 1 h 55 min
    Bit rate : 14.2 kb/s
    Frame rate : 0.217 FPS
    Count of elements : 1506
    Stream size : 11.7 MiB (0%)
    Title : Serbian
    Language : Serbian
    Default : No
    Forced : No

    Text #16
    ID : 19
    Format : PGS
    Muxing mode : zlib
    Codec ID : S_HDMV/PGS
    Codec ID/Info : Picture based subtitle format used on BDs/HD-DVDs
    Duration : 1 h 55 min
    Bit rate : 15.8 kb/s
    Frame rate : 0.216 FPS
    Count of elements : 1492
    Stream size : 13.0 MiB (0%)
    Title : Turkish
    Language : Turkish
    Default : No
    Forced : No

    Text #17
    ID : 20
    Format : PGS
    Muxing mode : zlib
    Codec ID : S_HDMV/PGS
    Codec ID/Info : Picture based subtitle format used on BDs/HD-DVDs
    Duration : 1 h 55 min
    Bit rate : 13.8 kb/s
    Frame rate : 0.161 FPS
    Count of elements : 1112
    Stream size : 11.4 MiB (0%)
    Title : Danish
    Language : Danish
    Default : No
    Forced : No

    Text #18
    ID : 21
    Format : PGS
    Muxing mode : zlib
    Codec ID : S_HDMV/PGS
    Codec ID/Info : Picture based subtitle format used on BDs/HD-DVDs
    Duration : 1 h 55 min
    Bit rate : 13.9 kb/s
    Frame rate : 0.190 FPS
    Count of elements : 1314
    Stream size : 11.5 MiB (0%)
    Title : Finnish
    Language : Finnish
    Default : No
    Forced : No

    Text #19
    ID : 22
    Format : PGS
    Muxing mode : zlib
    Codec ID : S_HDMV/PGS
    Codec ID/Info : Picture based subtitle format used on BDs/HD-DVDs
    Duration : 1 h 55 min
    Bit rate : 15.2 kb/s
    Frame rate : 0.215 FPS
    Count of elements : 1486
    Stream size : 12.6 MiB (0%)
    Title : Italian
    Language : Italian
    Default : No
    Forced : No

    Text #20
    ID : 23
    Format : PGS
    Muxing mode : zlib
    Codec ID : S_HDMV/PGS
    Codec ID/Info : Picture based subtitle format used on BDs/HD-DVDs
    Duration : 1 h 55 min
    Bit rate : 13.7 kb/s
    Frame rate : 0.204 FPS
    Count of elements : 1412
    Stream size : 11.3 MiB (0%)
    Title : Norwegian
    Language : Norwegian
    Default : No
    Forced : No

    Text #21
    ID : 24
    Format : PGS
    Muxing mode : zlib
    Codec ID : S_HDMV/PGS
    Codec ID/Info : Picture based subtitle format used on BDs/HD-DVDs
    Duration : 1 h 55 min
    Bit rate : 14.3 kb/s
    Frame rate : 0.215 FPS
    Count of elements : 1494
    Stream size : 11.8 MiB (0%)
    Title : Spanish (Castilian)
    Language : Spanish
    Default : No
    Forced : No

    Text #22
    ID : 25
    Format : PGS
    Muxing mode : zlib
    Codec ID : S_HDMV/PGS
    Codec ID/Info : Picture based subtitle format used on BDs/HD-DVDs
    Duration : 1 h 55 min
    Bit rate : 14.1 kb/s
    Frame rate : 0.180 FPS
    Count of elements : 1247
    Stream size : 11.6 MiB (0%)
    Title : Swedish
    Language : Swedish
    Default : No
    Forced : No

    Text #23
    ID : 26
    Format : PGS
    Muxing mode : zlib
    Codec ID : S_HDMV/PGS
    Codec ID/Info : Picture based subtitle format used on BDs/HD-DVDs
    Duration : 1 h 55 min
    Bit rate : 13.9 kb/s
    Frame rate : 0.214 FPS
    Count of elements : 1480
    Stream size : 11.5 MiB (0%)
    Title : Croatian
    Language : Croatian
    Default : No
    Forced : No

    Text #24
    ID : 27
    Format : PGS
    Muxing mode : zlib
    Codec ID : S_HDMV/PGS
    Codec ID/Info : Picture based subtitle format used on BDs/HD-DVDs
    Duration : 1 h 55 min
    Bit rate : 15.4 kb/s
    Frame rate : 0.211 FPS
    Count of elements : 1458
    Stream size : 12.7 MiB (0%)
    Title : Icelandic
    Language : Icelandic
    Default : No
    Forced : No

    Text #25
    ID : 28
    Format : PGS
    Muxing mode : zlib
    Codec ID : S_HDMV/PGS
    Codec ID/Info : Picture based subtitle format used on BDs/HD-DVDs
    Duration : 1 h 55 min
    Bit rate : 13.7 kb/s
    Frame rate : 0.214 FPS
    Count of elements : 1486
    Stream size : 11.3 MiB (0%)
    Title : Slovenian
    Language : Slovenian
    Default : No
    Forced : No

    Text #26
    ID : 29
    Format : PGS
    Muxing mode : zlib
    Codec ID : S_HDMV/PGS
    Codec ID/Info : Picture based subtitle format used on BDs/HD-DVDs
    Duration : 1 h 55 min
    Bit rate : 17.1 kb/s
    Frame rate : 0.227 FPS
    Count of elements : 1572
    Stream size : 14.1 MiB (0%)
    Title : Russian
    Language : Russian
    Default : No
    Forced : No

    Text #27
    ID : 30
    Format : PGS
    Muxing mode : zlib
    Codec ID : S_HDMV/PGS
    Codec ID/Info : Picture based subtitle format used on BDs/HD-DVDs
    Duration : 1 h 55 min
    Bit rate : 16.3 kb/s
    Frame rate : 0.216 FPS
    Count of elements : 1496
    Stream size : 13.5 MiB (0%)
    Title : Estonian
    Language : Estonian
    Default : No
    Forced : No

    Text #28
    ID : 31
    Format : PGS
    Muxing mode : zlib
    Codec ID : S_HDMV/PGS
    Codec ID/Info : Picture based subtitle format used on BDs/HD-DVDs
    Duration : 1 h 55 min
    Bit rate : 13.6 kb/s
    Frame rate : 0.208 FPS
    Count of elements : 1444
    Stream size : 11.3 MiB (0%)
    Title : Latvian
    Language : Latvian
    Default : No
    Forced : No

    Text #29
    ID : 32
    Format : PGS
    Muxing mode : zlib
    Codec ID : S_HDMV/PGS
    Codec ID/Info : Picture based subtitle format used on BDs/HD-DVDs
    Duration : 1 h 55 min
    Bit rate : 16.2 kb/s
    Frame rate : 0.216 FPS
    Count of elements : 1492
    Stream size : 13.4 MiB (0%)
    Title : Lithuanian
    Language : Lithuanian
    Default : No
    Forced : No

    Text #30
    ID : 33
    Format : PGS
    Muxing mode : zlib
    Codec ID : S_HDMV/PGS
    Codec ID/Info : Picture based subtitle format used on BDs/HD-DVDs
    Duration : 1 h 55 min
    Bit rate : 8 754 b/s
    Frame rate : 0.215 FPS
    Count of elements : 1490
    Stream size : 7.22 MiB (0%)
    Title : Arabic
    Language : Arabic
    Default : No
    Forced : No

    Text #31
    ID : 34
    Format : PGS
    Muxing mode : zlib
    Codec ID : S_HDMV/PGS
    Codec ID/Info : Picture based subtitle format used on BDs/HD-DVDs
    Duration : 1 h 55 min
    Bit rate : 13.3 kb/s
    Frame rate : 0.216 FPS
    Count of elements : 1492
    Stream size : 11.0 MiB (0%)
    Title : Chinese (Cantonese)
    Language : Chinese
    Default : No
    Forced : No

    Text #32
    ID : 35
    Format : PGS
    Muxing mode : zlib
    Codec ID : S_HDMV/PGS
    Codec ID/Info : Picture based subtitle format used on BDs/HD-DVDs
    Duration : 1 h 55 min
    Bit rate : 14.6 kb/s
    Frame rate : 0.215 FPS
    Count of elements : 1490
    Stream size : 12.0 MiB (0%)
    Title : Hindi
    Language : Hindi
    Default : No
    Forced : No



    BT 下载 推荐使用【迅雷云盘离线下载】【比特彗星】下载
  • 下载电影三步骤
    1、在《4K电影列表》找到并打开电影详情页,点击BT种子文件或复制磁力链,将BT种子下载到电脑中。
    2、电脑安装《BT下载软件》,免费的推荐使用《UTorrent》下载,收费的推荐使用《115网盘》下载(速度又快又稳).
    3、用BT下载软件,打开BT种子、或将磁力链复制粘贴到BT软件中即可下载。


    本站4K电影版块资源99%是真4K,都是从UHD蓝光碟片中提取而来!本站未发布的4K资源,全网都没有(除非假4K),所以发帖求资源也没用。

    下载速度慢怎么办
    1、正常情况使用《UTorrent》跟着网站发布资源节奏下载速度很快,可以达到宽带最大速度(电信)
    2、推荐使用《115网盘》下载速度又快又稳定,请勿使用迅雷下载;
    3、下载慢是有多方面原因,即依赖种子的热度、也要求是电信宽带(非移动/联通),同时选择对的下载软件和软件设置方法。
    4、使用BT协议下载没有速度,请更新《Trackers服务器》能够增加在线用户(越多越好),该方法使用《UTorrent》下载效果显著。
    更多下载问题参考: 4K电影下载新手学院>>

    多个种子/电影版本区别
    蓝光原盘BDMV
    俗称4K蓝光原盘,也就是从4K UHD蓝光碟中提取出来的源文件,由多个m2ts文件组成,与正版盘完全一致,且包含了光盘所有内容 (影片花絮、字幕、导航菜单、多语言多音轨、HDR 信息)等等,文件体积大,一部电影约有60GB+。此版本资源一般以「BDMV 文件夹」或「BDISO」 (iso) 格式发布;该版本可以用刻录机成带导航的光盘效果。

    DIY蓝光原盘BDMV
    经资源制作组基于蓝光原盘BDMV版本进行第二次DIY的版本,将片头AE特效、画面HDR调色、封装国语音轨、封装中文简体/繁体/英文等多语言字幕,更精彩的是是特效字幕(将电影画面中某些细节翻译成中文字幕)。

    蓝光BD-REMUX
    俗称REMUX,可以视为「音画质无损的精简版」"4K原盘",它其实就是将原盘里多余的一些音轨、花絮、菜单、字幕等东西移除或精简,仅保留主要的视频、主要音轨和部分语言字幕,然后再封装成「单个文件」的 .mkv 格式而来,其音质画质与BDMV蓝光原盘一致,但文件体积上能大幅缩减且成单个文件,在电脑上播放/管理/电视播放/播放器播放和分享起来也更方便。适合追求原盘音画质、不重视花絮周边内容、又希望稍微节省点硬盘空间的朋友。

    WEB-DL/WEBRip/流媒体版本
    WEB-DL 或 WEBRip 格式的影片主要来自 、Amazon Prime Video、Netflix、Hulu、YouTube 等「在线网络高清片源」。尽管这些服务提供了4K分辨率 (部分含 HDR) 的片源,但它们为了在线观看的流畅性,都会将视频画质进行较大幅度「有损压缩」。 WEB-DL 是 Web Download 的意思,指通过技术手段「直接下载」回来的在线视频 WEBRip 很多时候则是通过"屏幕转录"等方式二次录制,会造成多一次的画质损失。



    BT 下载 推荐使用【迅雷云盘离线下载】【比特彗星】下载
末路骄阳(港) / 非法正义(台) / 地狱之路/毁灭之路4k.Road.to.Perdition.2002.2160p.Ai-Upscaled.DTS-HD.MA.5.1.10Bit.H265-DirtyHippie.rife4.14-4k电影下载

毁灭之路4k.Road.to.Perdition.2002.2160p.Ai-Upscaled.DTS-HD.MA.5.1.10Bit.H265-DirtyHippie.rife4.14【14.23 GB】


Road.to.Perdition.2002.2160p.Ai-Upscaled.DTS-HD.MA.5.1.10Bit.H265-DirtyHippie.rife4.14-60fps.torrent ( 142.91 KB )


加入蓝光高清网VIP会员  无限制下载本站所有资源---点这里

资源下载、资源播放、字幕使用、无法下载等常见问题---点这里
回复

使用道具 举报

全部回复3 显示全部楼层
药河蟹手机认证 发表于 2024-1-15 09:51:21 | 显示全部楼层
要是蓝光原盘就好了
回复 支持 反对

使用道具 举报

ggang1 发表于 2024-1-15 10:16:14 | 显示全部楼层
谢谢楼主分享!
回复 支持 反对

使用道具 举报

suxiuxiu手机认证 发表于 2024-1-15 13:46:40 | 显示全部楼层
谢谢楼主分享!
回复 支持 反对

使用道具 举报

发表回复

您需要登录后才可以回帖 登录 | 立即注册

本版积分规则

开通会员 帮助中心 返回顶部 返回列表