本站已运行

蓝光高清网

搜索

定军山情歌4k.Love.of.Dingjun.Mountain.2020.2160p.WEB-DL.H265.EDR.DDP2.0-4k电影下载

蓝鸟 发表于 2024-2-26 13:53:28 | 显示全部楼层 |阅读模式
定军山情歌 (2020) 豆瓣评分: 无评分
时长:95 分钟
地区:中国大陆 
类型:剧情 
画质:4K HDR 
帧率:24FPS
音轨:ACC 2.0 
导演:郝志强
主演:徐歉
  • 电影下载
  • 影片简介
  • 影片参数
  • 下载说明
  • 《定军山情歌》网盘资源  Cloud storage download
    暂未提供

    已上传到迅雷云盘 可快速离线下载

    访问密码
      
    中文字幕


    《定军山情歌》BT 下载 推荐使用【迅雷云盘离线下载】【比特彗星】下载
  • 《定军山情歌》剧情简介 Film Introduction
      电影《定军山情歌》讲述的是陕南的风土人情,影片全程将在陕南拍摄完成。


    《定军山情歌》BT 下载 推荐使用【迅雷云盘离线下载】【比特彗星】下载
  • 《定军山情歌》影片INFO Video INFO
    Video
    ID : 1
    Format : HEVC
    Format/Info : High Efficiency Video Coding
    Format profile : Main@L5@Main
    Codec ID : V_MPEGH/ISO/HEVC
    Duration : 1 h 35 min
    Bit rate : 14.7 Mb/s
    Width : 3 840 pixels
    Height : 1 528 pixels
    Display aspect ratio : 2.513
    Frame rate mode : Constant
    Frame rate : 25.000 FPS
    Color space : YUV
    Chroma subsampling : 4:2:0
    Bit depth : 8 bits
    Bits/(Pixel*Frame) : 0.100
    Stream size : 9.78 GiB (98%)
    Language : Chinese
    Default : Yes
    Forced : No

    Audio #1
    ID : 2
    Format : AAC LC
    Format/Info : Advanced Audio Codec Low Complexity
    Codec ID : A_AAC-2
    Duration : 1 h 35 min
    Bit rate : 192 kb/s
    Channel(s) : 2 channels
    Channel layout : L R
    Sampling rate : 44.1 kHz
    Frame rate : 43.066 FPS (1024 SPF)
    Compression mode : Lossy
    Stream size : 129 MiB (1%)
    Default : No
    Forced : No

    Audio #2
    ID : 3
    Format : E-AC-3
    Format/Info : Enhanced AC-3
    Commercial name : Dolby Digital Plus
    Codec ID : A_EAC3
    Duration : 1 h 35 min
    Bit rate mode : Constant
    Bit rate : 96.0 kb/s
    Channel(s) : 2 channels
    Channel layout : L R
    Sampling rate : 48.0 kHz
    Frame rate : 31.250 FPS (1536 SPF)
    Compression mode : Lossy
    Stream size : 65.4 MiB (1%)
    Title : zh-ch [Dolby Digital Plus 2.0]
    Language : Chinese
    Service kind : Complete Main
    Default : Yes
    Forced : No



    BT 下载 推荐使用【迅雷云盘离线下载】【比特彗星】下载
  • 下载电影三步骤
    1、在《4K电影列表》找到并打开电影详情页,点击BT种子文件或复制磁力链,将BT种子下载到电脑中。
    2、电脑安装《BT下载软件》,免费的推荐使用《UTorrent》下载,收费的推荐使用《115网盘》下载(速度又快又稳).
    3、用BT下载软件,打开BT种子、或将磁力链复制粘贴到BT软件中即可下载。


    本站4K电影版块资源99%是真4K,都是从UHD蓝光碟片中提取而来!本站未发布的4K资源,全网都没有(除非假4K),所以发帖求资源也没用。

    下载速度慢怎么办
    1、正常情况使用《UTorrent》跟着网站发布资源节奏下载速度很快,可以达到宽带最大速度(电信)
    2、推荐使用《115网盘》下载速度又快又稳定,请勿使用迅雷下载;
    3、下载慢是有多方面原因,即依赖种子的热度、也要求是电信宽带(非移动/联通),同时选择对的下载软件和软件设置方法。
    4、使用BT协议下载没有速度,请更新《Trackers服务器》能够增加在线用户(越多越好),该方法使用《UTorrent》下载效果显著。
    更多下载问题参考: 4K电影下载新手学院>>

    多个种子/电影版本区别
    蓝光原盘BDMV
    俗称4K蓝光原盘,也就是从4K UHD蓝光碟中提取出来的源文件,由多个m2ts文件组成,与正版盘完全一致,且包含了光盘所有内容 (影片花絮、字幕、导航菜单、多语言多音轨、HDR 信息)等等,文件体积大,一部电影约有60GB+。此版本资源一般以「BDMV 文件夹」或「BDISO」 (iso) 格式发布;该版本可以用刻录机成带导航的光盘效果。

    DIY蓝光原盘BDMV
    经资源制作组基于蓝光原盘BDMV版本进行第二次DIY的版本,将片头AE特效、画面HDR调色、封装国语音轨、封装中文简体/繁体/英文等多语言字幕,更精彩的是是特效字幕(将电影画面中某些细节翻译成中文字幕)。

    蓝光BD-REMUX
    俗称REMUX,可以视为「音画质无损的精简版」"4K原盘",它其实就是将原盘里多余的一些音轨、花絮、菜单、字幕等东西移除或精简,仅保留主要的视频、主要音轨和部分语言字幕,然后再封装成「单个文件」的 .mkv 格式而来,其音质画质与BDMV蓝光原盘一致,但文件体积上能大幅缩减且成单个文件,在电脑上播放/管理/电视播放/播放器播放和分享起来也更方便。适合追求原盘音画质、不重视花絮周边内容、又希望稍微节省点硬盘空间的朋友。

    WEB-DL/WEBRip/流媒体版本
    WEB-DL 或 WEBRip 格式的影片主要来自 、Amazon Prime Video、Netflix、Hulu、YouTube 等「在线网络高清片源」。尽管这些服务提供了4K分辨率 (部分含 HDR) 的片源,但它们为了在线观看的流畅性,都会将视频画质进行较大幅度「有损压缩」。 WEB-DL 是 Web Download 的意思,指通过技术手段「直接下载」回来的在线视频 WEBRip 很多时候则是通过"屏幕转录"等方式二次录制,会造成多一次的画质损失。



    BT 下载 推荐使用【迅雷云盘离线下载】【比特彗星】下载
定军山情歌4k.Love.of.Dingjun.Mountain.2020.2160p.WEB-DL.H265.EDR.DDP2.0-4k电影下载

定军山情歌4k.Love.of.Dingjun.Mountain.2020.2160p.WEB-DL.H265.EDR.DDP2.0【WEB-DL 4K 9.97GB】【国语中字】

定军山情歌4k.Love.of.Dingjun.Mountain.2020.2160p.WEB-DL.H265.EDR.DDP2.0[国语中字].torrent ( 110.62 KB )


加入蓝光高清网VIP会员  无限制下载本站所有资源---点这里

资源下载、资源播放、字幕使用、无法下载等常见问题---点这里
回复

使用道具 举报

全部回复4 显示全部楼层
wrs123手机认证 发表于 2024-2-27 08:39:37 | 显示全部楼层
每日签到,领取奖励,记录点滴,成为签到达人!
回复 支持 反对

使用道具 举报

jrzling手机认证 发表于 2024-2-27 21:56:31 | 显示全部楼层
感谢分享
回复

使用道具 举报

ggang1 发表于 2024-2-28 14:35:33 | 显示全部楼层

每日签到,记录点滴
回复 支持 反对

使用道具 举报

jrzling手机认证 发表于 2024-2-28 19:21:27 | 显示全部楼层
感谢分享
回复

使用道具 举报

发表回复

您需要登录后才可以回帖 登录 | 立即注册

本版积分规则

开通会员 帮助中心 返回顶部 返回列表