本站已运行

蓝光高清网

搜索

[剧情] 新金瓶梅 [全5集][国语配音/中文字幕][高清修复未删减版].Sex.and.Chopsticks.1996.1080P.AC3-TAG 50.11GB - 1080p电影 - 蓝光电影网

 
蓝鸟 发表于 2024-4-29 10:09:08 | 显示全部楼层 |阅读模式

新金瓶梅 [全5集][国语配音/中文字幕][高清修复未删减版].Sex.and.Chopsticks.1996.1080P.AC3-TAG 50.11GB ...

新金瓶梅 [全5集][国语配音/中文字幕][高清修复未删减版].Sex.and.Chopsticks.1996.1080P.AC3-TAG 50.11GB  ...


译  名 Jin Pin Mei/New Golden Lotus/New Jin Pin Mei I
片  名 新金瓶梅
年  代 1996
产  地 中国香港/中国台湾
类  别 剧情/情色
语  言 汉语普通话/粤语
上映日期 1996
IMDb评分  7.2/10 from 90 users
豆瓣评分 8.1/10 from 8772 users
集  数 5
片  长 90分钟
导  演 谭锐铭 Yui-Ming Tam
编  剧 梁天 Tin Leung / 兰陵笑笑生 Xiao Xiao Sheng
主  演 单立文 Pal Sinn
       杨思敏 Si Man Yeung
       叶先儿 Sin-Yi Yip
       蔡美优 Choi Mei-Yau
       顾冠忠 Kuan-chung Ku
       林国印 Kwok-Yan Lam
       曾亚君 Ya Chun Ceng
       黄仲裕 Chung-yu Huang
       赵慧 Daisy
       鲍悦君 Yui-chun Pao
       陈萍 Ping Chan
       林映君 Ying-Kwan Lam
       唐川 Chuen Tong
       陆一龙 Yi-Long Lu
       尤国栋 Kuo-tung Yu
       林美仑 Lam Mei-Lun
       金十二 Sap-Yee Gam
       张誉耀 Yu-yao Chang
       吕嘉兴 Chia-Hsing Lu
       许文锐 Wen-Yui Hui
       李家珍 Ka-Chan Lee
       虞金宝 Chin-Bao Yu
       黄宗宽 Chung-kuan Huang
       祝嘉正 Chia-Cheng Chu
       杨雄 Hsiung Yang
       阮晓燕 Hisiao-Yen Yuan
       郑峻升 Jun-Sheng Cheng

简  介

清河县是一个地处偏远的小县城,西门庆(单立文 饰)风流成性,贪婪狂妄,只要是他想要得到的东西,无论使用怎样的手段都要得逞。某日,西门庆看上了武大郎(林国印 饰)之妻潘金莲(杨思明 饰),被潘金莲的美貌所吸引的西门庆联手王婆(曾亚君 饰)从中作梗,最终抱得美人归。
  
  之后,武大郎找西门庆算账,不仅被其打成重伤,并且最终命丧黄泉。狡猾的西门庆将杀人的罪名栽赃到了武大郎的弟弟武松(顾冠中 饰)头上,使得武松被打入了大牢发配边疆。而潘金莲早已对正直勇敢的武松芳心暗许,为了救心目中的大英雄,她不得不答应了西门庆各种荒淫无耻的要求,进入了西门府,成为了他的第五个妻子。


影片参数
  1. General
  2. Unique ID : 213616700404107448392873908113834519060 (0xA0B5147A6AF23190A88B9881F7902A14)
  3. Complete name : ./New.Golden.Lotus.EP01.mkv
  4. Format : Matroska
  5. Format version : Version 4
  6. File size : 8.00 GiB
  7. Duration : 1 h 26 min
  8. Overall bit rate : 13.3 Mb/s
  9. Movie name : 电影烧包AI
  10. Encoded date : UTC 2020-06-19 13:59:08
  11. Writing application : mkvmerge v9.4.0 (''Knurl'') 64bit
  12. Writing library : libebml v1.3.4 + libmatroska v1.4.5
  13. Cover : Yes
  14. Attachments : cover.jpg

  15. Video
  16. ID : 1
  17. Format : AVC
  18. Format/Info : Advanced Video Codec
  19. Format profile : High@L5.1
  20. Format settings : CABAC / 5 Ref Frames
  21. Format settings, CABAC : Yes
  22. Format settings, Reference frames : 5 frames
  23. Codec ID : V_MPEG4/ISO/AVC
  24. Duration : 1 h 26 min
  25. Bit rate : 13.1 Mb/s
  26. Width : 1 824 pixels
  27. Height : 1 080 pixels
  28. Display aspect ratio : 5:3
  29. Frame rate mode : Constant
  30. Frame rate : 23.976 (24000/1001) FPS
  31. Color space : YUV
  32. Chroma subsampling : 4:2:0
  33. Bit depth : 8 bits
  34. Scan type : Progressive
  35. Bits/(Pixel*Frame) : 0.277
  36. Stream size : 7.87 GiB (98%)
  37. Writing library : x264 core 148 r2638 7599210
  38. Encoding settings : cabac=1 / ref=5 / deblock=1:-3:-3 / analyse=0x3:0x133 / me=umh / subme=7 / psy=1 / psy_rd=1.01:0.03 / mixed_ref=1 / me_range=24 / chroma_me=1 / trellis=2 / 8x8dct=1 / cqm=0 / deadzone=21,11 / fast_pskip=1 / chroma_qp_offset=-3 / threads=30 / lookahead_threads=8 / sliced_threads=0 / nr=0 / decimate=0 / interlaced=0 / bluray_compat=0 / constrained_intra=0 / bframes=12 / b_pyramid=2 / b_adapt=2 / b_bias=0 / direct=3 / weightb=1 / open_gop=1 / weightp=2 / keyint=336 / keyint_min=23 / scenecut=38 / intra_refresh=0 / rc_lookahead=60 / rc=crf / mbtree=1 / crf=16.0 / qcomp=0.60 / qpmin=0 / qpmax=69 / qpstep=4 / vbv_maxrate=300000 / vbv_bufsize=300000 / crf_max=0.0 / nal_hrd=none / filler=0 / ip_ratio=1.40 / aq=1:0.80
  39. Language : Chinese
  40. Default : Yes
  41. Forced : No

  42. Audio
  43. ID : 2
  44. Format : AC-3
  45. Format/Info : Audio Coding 3
  46. Commercial name : Dolby Digital
  47. Codec ID : A_AC3
  48. Duration : 1 h 26 min
  49. Bit rate mode : Constant
  50. Bit rate : 192 kb/s
  51. Channel(s) : 2 channels
  52. Channel layout : L R
  53. Sampling rate : 48.0 kHz
  54. Frame rate : 31.250 FPS (1536 SPF)
  55. Compression mode : Lossy
  56. Delay relative to video : 12 ms
  57. Stream size : 118 MiB (1%)
  58. Title : 国语
  59. Language : Chinese
  60. Service kind : Complete Main
  61. Default : Yes
  62. Forced : No

  63. Text #1
  64. ID : 3
  65. Format : PGS
  66. Muxing mode : zlib
  67. Codec ID : S_HDMV/PGS
  68. Codec ID/Info : Picture based subtitle format used on BDs/HD-DVDs
  69. Duration : 1 h 22 min
  70. Bit rate : 8 041 b/s
  71. Count of elements : 2170
  72. Stream size : 4.73 MiB (0%)
  73. Title : SUP中简
  74. Language : Chinese
  75. Default : Yes
  76. Forced : Yes

  77. Text #2
  78. ID : 4
  79. Format : PGS
  80. Muxing mode : zlib
  81. Codec ID : S_HDMV/PGS
  82. Codec ID/Info : Picture based subtitle format used on BDs/HD-DVDs
  83. Duration : 1 h 22 min
  84. Bit rate : 6 878 b/s
  85. Count of elements : 2170
  86. Stream size : 4.05 MiB (0%)
  87. Title : SUP中繁
  88. Language : Chinese
  89. Default : No
  90. Forced : No

  91. Text #3
  92. ID : 5
  93. Format : ASS
  94. Codec ID : S_TEXT/ASS
  95. Codec ID/Info : Advanced Sub Station Alpha
  96. Duration : 1 h 22 min
  97. Bit rate : 79 b/s
  98. Count of elements : 1085
  99. Compression mode : Lossless
  100. Stream size : 48.2 KiB (0%)
  101. Title : ASS中简
  102. Language : Chinese
  103. Default : No
  104. Forced : No

  105. Text #4
  106. ID : 6
  107. Format : ASS
  108. Codec ID : S_TEXT/ASS
  109. Codec ID/Info : Advanced Sub Station Alpha
  110. Duration : 1 h 22 min
  111. Bit rate : 79 b/s
  112. Count of elements : 1085
  113. Compression mode : Lossless
  114. Stream size : 48.2 KiB (0%)
  115. Title : ASS中繁
  116. Language : Chinese
  117. Default : No
  118. Forced : No

  119. Menu
  120. 00:00:00.000 : en:Chapter 1
  121. 00:12:55.674 : en:Chapter 2
  122. 00:20:36.301 : en:Chapter 3
  123. 00:39:09.980 : en:Chapter 4
  124. 00:43:49.059 : en:Chapter 5
  125. 00:54:06.543 : en:Chapter 6
  126. 01:00:40.003 : en:Chapter 7
  127. 01:11:07.930 : en:Chapter 8
复制代码

新种推荐请使用qBittorrent,utorrent,transmission等标准BT软件下载!以获取最快速度。请大家下载完成后不要关闭下载软件 贡献出自己的上传带宽 人人为我 我为人人!





蓝光高清网提示您 点击下方附件即可下载

新金瓶梅 [全5集][国语配音/中文字幕][高清修复未删减版].Sex.and.Chopsticks.1996.1080P.AC3-TAG 50.11GB

新金瓶梅 [全5集].Sex.and.Chopsticks.1996.1080P.AC3-TAG.torrent ( 251.91 KB )

加入蓝光高清网VIP会员  无限制下载本站所有资源---点这里

资源下载、资源播放、字幕使用、无法下载等常见问题---点这里
回复

使用道具 举报

全部回复10 显示全部楼层
peterworld手机认证 发表于 2024-5-1 09:45:15 | 显示全部楼层
谢谢楼主分享
回复 支持 反对

使用道具 举报

redresidence手机认证 发表于 2024-5-2 00:53:06 | 显示全部楼层
非常感谢
回复

使用道具 举报

遁去的一手机认证 发表于 2024-5-2 12:07:17 来自手机 | 显示全部楼层
peterworld 发表于 2024-5-1 09:45
谢谢楼主分享

没有截图,画质如何?
回复 支持 反对

使用道具 举报

suyunbin手机认证 发表于 2024-5-2 15:13:51 | 显示全部楼层
画质如何?
回复

使用道具 举报

遁去的一手机认证 发表于 2024-5-4 23:07:46 来自手机 | 显示全部楼层
怎么冲一个月会员?
回复 支持 反对

使用道具 举报

NO1差不多先生手机认证 发表于 2024-5-6 08:30:46 | 显示全部楼层
这个赞,找了好久了
回复 支持 反对

使用道具 举报

redresidence手机认证 发表于 2024-5-11 08:01:53 | 显示全部楼层
谢谢楼主分享
回复 支持 反对

使用道具 举报

zhaozhi手机认证 发表于 2024-5-11 16:52:46 | 显示全部楼层
这个还是不要看!因为会伤身子!
回复 支持 反对

使用道具 举报

cctv306手机认证 发表于 2024-5-25 04:16:31 | 显示全部楼层

谢谢楼主分享
回复 支持 反对

使用道具 举报

发表回复

您需要登录后才可以回帖 登录 | 立即注册

本版积分规则

开通会员 帮助中心 返回顶部 返回列表