本站已运行

蓝光高清网

搜索

漫漫回家路4k.Rabbit.Proof.Fence.2002.2160p.WEB-DL.DTS-HD.MA.5.1.H.265-4k电影下载

蓝鸟 发表于 2024-5-22 11:20:34 | 显示全部楼层 |阅读模式
漫漫回家路 (00年代) 豆瓣评分: 7.8分
时长:90 分钟
地区:其他 
类型:剧情 历史 冒险 
画质:4K 
帧率:24FPS
音轨:DTS-HD.MA 5.1 
导演:菲利普·诺伊斯
主演:Everlyn Sampi / Tianna Sansbury / 大卫·古皮利 / 肯尼思·布拉纳 / 德波拉·梅尔曼
  • 电影下载
  • 影片简介
  • 影片参数
  • 下载说明
  • 《漫漫回家路》网盘资源  Cloud storage download
    迅雷云盘

    已上传到迅雷云盘 可快速离线下载

    访问密码
      
    中文字幕


    《漫漫回家路》BT 下载 推荐使用【迅雷云盘离线下载】【比特彗星】下载
  • 《漫漫回家路》剧情简介 Film Introduction
      故事发生在二十世纪初期,澳大利亚政府决定实行一项残酷的计划,他们强行将白人与当地土著所生的混血孩子们从亲人身边带走,编入摩尔河营地,通过训练和教化将他们变为廉价劳动力,更妄图用包办婚姻来改变他们那所谓的“低贱血统”。
      14岁的莫利(Everlyn Sampi 饰)就是这些孩子中的一员,无法忍受营地里的痛苦生活,勇敢的她决定出逃。和莫利一起逃跑的还有黛西(Tianna Sansbury 饰)和格雷西(Laura Monaghan 饰),三个女孩将要面对的是一千五百英里的漫漫路途和在她们身后穷追不舍的木都(大卫·古皮利 David Gulpilil 饰)。三个孩子能够顺利的到达目的地吗?在那里,又会有着怎样的生活在等待着她们呢?


    《漫漫回家路》BT 下载 推荐使用【迅雷云盘离线下载】【比特彗星】下载
  • 《漫漫回家路》影片INFO Video INFO
    Video
    ID : 1
    Format : HEVC
    Format/Info : High Efficiency Video Coding
    Format profile : Main@L5@High
    Codec ID : V_MPEGH/ISO/HEVC
    Duration : 1 h 33 min
    Bit rate : 14.8 Mb/s
    Width : 3 840 pixels
    Height : 2 160 pixels
    Display aspect ratio : 16:9
    Frame rate mode : Constant
    Frame rate : 23.976 (24000/1001) FPS
    Color space : YUV
    Chroma subsampling : 4:2:0
    Bit depth : 8 bits
    Bits/(Pixel*Frame) : 0.074
    Stream size : 9.69 GiB (74%)
    Language : English
    Default : Yes
    Forced : No
    Color range : Limited
    Color primaries : BT.709
    Transfer characteristics : BT.709
    Matrix coefficients : BT.709

    Audio #1
    ID : 2
    Format : DTS XLL
    Format/Info : Digital Theater Systems
    Commercial name : DTS-HD Master Audio
    Codec ID : A_DTS
    Duration : 1 h 33 min
    Bit rate mode : Variable
    Bit rate : 4 578 kb/s
    Channel(s) : 6 channels
    Channel layout : C L R Ls Rs LFE
    Sampling rate : 48.0 kHz
    Frame rate : 93.750 FPS (512 SPF)
    Bit depth : 24 bits
    Compression mode : Lossless
    Delay relative to video : 979 ms
    Stream size : 3.00 GiB (23%)
    Title : DTS-HD MA 5.1
    Language : English
    Default : Yes
    Forced : No

    Audio #2
    ID : 3
    Format : FLAC
    Format/Info : Free Lossless Audio Codec
    Codec ID : A_FLAC
    Duration : 1 h 33 min
    Bit rate mode : Variable
    Bit rate : 719 kb/s
    Channel(s) : 2 channels
    Channel layout : L R
    Sampling rate : 48.0 kHz
    Frame rate : 11.719 FPS (4096 SPF)
    Bit depth : 24 bits
    Compression mode : Lossless
    Delay relative to video : 979 ms
    Stream size : 482 MiB (4%)
    Title : Commentary by Director Phillip Noyce, Musician Peter Gabriel, Actor Kenneth Branagh, Screenwriter Christine Olsen and Author Doris Pilkington
    Writing library : libFLAC 1.3.3 (2019-08-04)
    Language : English
    Default : No
    Forced : No
    MD5 of the unencoded content : 789D08D9AE114332E1BB5B3AC59DEBDE

    Text #1
    ID : 4
    Format : UTF-8
    Codec ID : S_TEXT/UTF8
    Codec ID/Info : UTF-8 Plain Text
    Duration : 1 h 24 min
    Bit rate : 30 b/s
    Frame rate : 0.125 FPS
    Count of elements : 632
    Stream size : 18.8 KiB (0%)
    Language : English
    Default : No
    Forced : No

    Text #2
    ID : 5
    Format : UTF-8
    Codec ID : S_TEXT/UTF8
    Codec ID/Info : UTF-8 Plain Text
    Duration : 1 h 33 min
    Bit rate : 32 b/s
    Frame rate : 0.134 FPS
    Count of elements : 749
    Stream size : 22.1 KiB (0%)
    Title : SDH
    Language : English
    Default : No
    Forced : No

    Menu
    00:00:00.979 : en:Prologue
    00:05:36.687 : en:The Chief Protector
    00:07:02.857 : en:Stolen
    00:12:04.241 : en:Slide Show
    00:15:20.729 : en:Moore River
    00:29:09.807 : en:Escape
    00:32:08.569 : en:Tracker
    00:35:31.272 : en:River Chase
    00:42:32.567 : en:Farmhouse
    00:48:02.939 : en:Ambush
    00:52:46.556 : en:Mavis
    00:59:51.355 : en:Lost Tracks
    01:03:22.358 : en:Gracie\\\\\\\'s Recapture
    01:11:24.256 : en:Lost
    01:17:11.603 : en:Coming Home
    01:24:33.377 : en:Epilogue



    BT 下载 推荐使用【迅雷云盘离线下载】【比特彗星】下载
  • 下载电影三步骤
    1、在《4K电影列表》找到并打开电影详情页,点击BT种子文件或复制磁力链,将BT种子下载到电脑中。
    2、电脑安装《BT下载软件》,免费的推荐使用《UTorrent》下载,收费的推荐使用《115网盘》下载(速度又快又稳).
    3、用BT下载软件,打开BT种子、或将磁力链复制粘贴到BT软件中即可下载。


    本站4K电影版块资源99%是真4K,都是从UHD蓝光碟片中提取而来!本站未发布的4K资源,全网都没有(除非假4K),所以发帖求资源也没用。

    下载速度慢怎么办
    1、正常情况使用《UTorrent》跟着网站发布资源节奏下载速度很快,可以达到宽带最大速度(电信)
    2、推荐使用《115网盘》下载速度又快又稳定,请勿使用迅雷下载;
    3、下载慢是有多方面原因,即依赖种子的热度、也要求是电信宽带(非移动/联通),同时选择对的下载软件和软件设置方法。
    4、使用BT协议下载没有速度,请更新《Trackers服务器》能够增加在线用户(越多越好),该方法使用《UTorrent》下载效果显著。
    更多下载问题参考: 4K电影下载新手学院>>

    多个种子/电影版本区别
    蓝光原盘BDMV
    俗称4K蓝光原盘,也就是从4K UHD蓝光碟中提取出来的源文件,由多个m2ts文件组成,与正版盘完全一致,且包含了光盘所有内容 (影片花絮、字幕、导航菜单、多语言多音轨、HDR 信息)等等,文件体积大,一部电影约有60GB+。此版本资源一般以「BDMV 文件夹」或「BDISO」 (iso) 格式发布;该版本可以用刻录机成带导航的光盘效果。

    DIY蓝光原盘BDMV
    经资源制作组基于蓝光原盘BDMV版本进行第二次DIY的版本,将片头AE特效、画面HDR调色、封装国语音轨、封装中文简体/繁体/英文等多语言字幕,更精彩的是是特效字幕(将电影画面中某些细节翻译成中文字幕)。

    蓝光BD-REMUX
    俗称REMUX,可以视为「音画质无损的精简版」"4K原盘",它其实就是将原盘里多余的一些音轨、花絮、菜单、字幕等东西移除或精简,仅保留主要的视频、主要音轨和部分语言字幕,然后再封装成「单个文件」的 .mkv 格式而来,其音质画质与BDMV蓝光原盘一致,但文件体积上能大幅缩减且成单个文件,在电脑上播放/管理/电视播放/播放器播放和分享起来也更方便。适合追求原盘音画质、不重视花絮周边内容、又希望稍微节省点硬盘空间的朋友。

    WEB-DL/WEBRip/流媒体版本
    WEB-DL 或 WEBRip 格式的影片主要来自 、Amazon Prime Video、Netflix、Hulu、YouTube 等「在线网络高清片源」。尽管这些服务提供了4K分辨率 (部分含 HDR) 的片源,但它们为了在线观看的流畅性,都会将视频画质进行较大幅度「有损压缩」。 WEB-DL 是 Web Download 的意思,指通过技术手段「直接下载」回来的在线视频 WEBRip 很多时候则是通过"屏幕转录"等方式二次录制,会造成多一次的画质损失。



    BT 下载 推荐使用【迅雷云盘离线下载】【比特彗星】下载
孩子要回家 / 末路小狂花(台) / 离家2500里 / 防兔篱笆/漫漫回家路4k.Rabbit.Proof.Fence.2002.2160p.WEB-DL.DTS-HD.MA.5.1.H.265-4k电影下载

漫漫回家路4k.Rabbit.Proof.Fence.2002.2160p.WEB-DL.DTS-HD.MA.5.1.H.265【WEB-DL 13.16 GB 】

漫漫回家路4k.Rabbit.Proof.Fence.2002.2160p.WEB-DL.DTS-HD.MA.5.1.H.265.torrent ( 142.95 KB )


加入蓝光高清网VIP会员  无限制下载本站所有资源---点这里

资源下载、资源播放、字幕使用、无法下载等常见问题---点这里
回复

使用道具 举报

全部回复1 显示全部楼层
怀念唯一手机认证 发表于 2024-5-24 08:21:59 | 显示全部楼层
灌水封号
回复

使用道具 举报

发表回复

您需要登录后才可以回帖 登录 | 立即注册

本版积分规则

开通会员 帮助中心 返回顶部 返回列表