本站已运行

蓝光高清网

搜索

[剧情] 科拉尔金矿 / 黄金之城:第一章.K.G.F.Chapter.1.2018.1080p.10bit.Blu-ray.Hindi.DDP5.1.ESub.HEVC-NmCT 8.84GB

蓝鸟 发表于 2024-6-3 10:34:33 | 显示全部楼层 |阅读模式

科拉尔金矿 / 黄金之城:第一章.K.G.F.Chapter.1.2018.1080p.10bit.Blu-ray.Hindi.DDP5.1.ESub.HEVC-NmCT 8 ...

科拉尔金矿 / 黄金之城:第一章.K.G.F.Chapter.1.2018.1080p.10bit.Blu-ray.Hindi.DDP5.1.ESub.HEVC-NmCT 8 ...



译  名 科拉尔金矿 / 黄金之城:第一章
片  名 K.G.F: Chapter 1
年  代 2018
产  地 印度
类  别 剧情 / 动作
语  言 卡纳达语 / 汉语普通话 / 日语 / 泰米尔语 / 泰卢固语 / 印地语 / 马拉雅拉姆语 / 英语 / 韩语
上映日期 2018-12-21(印度)
IMDb评星  ★★★★★★★★☆☆
IMDb评分  8.2/10 from 98,793 users
豆瓣评星 ★★★☆☆
豆瓣评分 6.3/10 from 734 users
片  长 170分钟
演  员 阿丘特·库马尔 / Achyuth Kumar | 饰 Guru Pandyan
      乔伊·波德拉尼 / Joy Badlani | 饰 Bhadhra
      T·S·那伽巴拉纳 / T.S. Nagabharana
      特曼娜·芭蒂亚 / Tamannaah Bhatia
      穆尼·罗伊 / Mouni Roy | 饰 Lucy
      亚什 / Yash

简  介

背景是80年代初,科拉尔金矿故事中的第一章,再现了以主人公为中心,领导的一场反对压迫者的战斗。


影片参数
  1. General
  2. Unique ID                   : 30318655006289612898552026504944190588 (0x16CF291A222E8FA6379E4EBDCA14847C)
  3. Complete name               : E:\K.G.F.Chapter.1.2018.1080p.10bit.Blu-ray.Hindi.DDP5.1.ESub.HEVC-NmCT.mkv
  4. Format                      : Matroska
  5. Format version              : Version 4
  6. File size                   : 8.84 GiB
  7. Duration                    : 2 h 33 min
  8. Overall bit rate            : 8 245 kb/s
  9. Frame rate                  : 23.976 FPS
  10. Encoded date                : 2024-05-28 08:55:50 UTC
  11. Writing application         : mkvmerge v84.0 (''Sleeper'') 64-bit
  12. Writing library             : libebml v1.4.5 + libmatroska v1.7.1

  13. Video
  14. ID                          : 1
  15. Format                      : HEVC
  16. Format/Info                 : High Efficiency Video Coding
  17. Format profile              : Main 10@L4.1@High
  18. Codec ID                    : V_MPEGH/ISO/HEVC
  19. Duration                    : 2 h 33 min
  20. Bit rate                    : 7 603 kb/s
  21. Width                       : 1 920 pixels
  22. Height                      : 820 pixels
  23. Display aspect ratio        : 2.35:1
  24. Frame rate mode             : Constant
  25. Frame rate                  : 23.976 (24000/1001) FPS
  26. Color space                 : YUV
  27. Chroma subsampling          : 4:2:0
  28. Bit depth                   : 10 bits
  29. Bits/(Pixel*Frame)          : 0.201
  30. Stream size                 : 8.15 GiB (92%)
  31. Default                     : Yes
  32. Forced                      : No
  33. Color range                 : Limited
  34. Color primaries             : BT.709
  35. Transfer characteristics    : BT.709
  36. Matrix coefficients         : BT.709

  37. Audio
  38. ID                          : 2
  39. Format                      : E-AC-3
  40. Format/Info                 : Enhanced AC-3
  41. Commercial name             : Dolby Digital Plus
  42. Codec ID                    : A_EAC3
  43. Duration                    : 2 h 33 min
  44. Bit rate mode               : Constant
  45. Bit rate                    : 640 kb/s
  46. Channel(s)                  : 6 channels
  47. Channel layout              : L R C LFE Ls Rs
  48. Sampling rate               : 48.0 kHz
  49. Frame rate                  : 31.250 FPS (1536 SPF)
  50. Compression mode            : Lossy
  51. Stream size                 : 703 MiB (8%)
  52. Language                    : Hindi
  53. Service kind                : Complete Main
  54. Default                     : Yes
  55. Forced                      : No

  56. Text #1
  57. ID                          : 3
  58. Format                      : UTF-8
  59. Codec ID                    : S_TEXT/UTF8
  60. Codec ID/Info               : UTF-8 Plain Text
  61. Duration                    : 2 h 29 min
  62. Bit rate                    : 57 b/s
  63. Frame rate                  : 0.250 FPS
  64. Count of elements           : 2245
  65. Stream size                 : 62.5 KiB (0%)
  66. Language                    : English
  67. Default                     : Yes
  68. Forced                      : No

  69. Text #2
  70. ID                          : 4
  71. Format                      : UTF-8
  72. Codec ID                    : S_TEXT/UTF8
  73. Codec ID/Info               : UTF-8 Plain Text
  74. Duration                    : 2 h 29 min
  75. Bit rate                    : 57 b/s
  76. Frame rate                  : 0.250 FPS
  77. Count of elements           : 2245
  78. Stream size                 : 62.5 KiB (0%)
  79. Language                    : English
  80. Default                     : Yes
  81. Forced                      : No
复制代码

科拉尔金矿 / 黄金之城:第一章.K.G.F.Chapter.1.2018.1080p.10bit.Blu-ray.Hindi.DDP5.1.ESub.HEVC-NmCT 8 ...

科拉尔金矿 / 黄金之城:第一章.K.G.F.Chapter.1.2018.1080p.10bit.Blu-ray.Hindi.DDP5.1.ESub.HEVC-NmCT 8 ...

科拉尔金矿 / 黄金之城:第一章.K.G.F.Chapter.1.2018.1080p.10bit.Blu-ray.Hindi.DDP5.1.ESub.HEVC-NmCT 8 ...

科拉尔金矿 / 黄金之城:第一章.K.G.F.Chapter.1.2018.1080p.10bit.Blu-ray.Hindi.DDP5.1.ESub.HEVC-NmCT 8 ...



蓝光高清网提示您 点击下方附件即可下载

科拉尔金矿 / 黄金之城:第一章.K.G.F.Chapter.1.2018.1080p.10bit.Blu-ray.Hindi.DDP5.1.ESub.HEVC-NmCT 8.84GB

K.G.F.Chapter.1.2018.1080p.10bit.Blu-ray.Hindi.DDP5.1.ESub.HEVC-NmCT.torrent ( 177.69 KB )

加入蓝光高清网VIP会员  无限制下载本站所有资源---点这里

资源下载、资源播放、字幕使用、无法下载等常见问题---点这里
回复

使用道具 举报

全部回复0 显示全部楼层

发表回复

您需要登录后才可以回帖 登录 | 立即注册

本版积分规则

开通会员 帮助中心 返回顶部 返回列表