本站已运行

蓝光高清网

搜索
开启左侧

[动作] 碟中谍3/不可能的任务3 Mission.Impossible.III.2006.REMASTERED.1080p.BluRay.x264.DTS-SWTYBL

蓝鸟 发表于 2019-9-4 14:02:06 | 显示全部楼层 |阅读模式
碟中谍3/不可能的任务3 Mission.Impossible.III.2006.REMASTERED.1080p.BluRay.x264.DTS-SWTYBLZ 15.22GB-1.jpg
◎译  名 碟中谍3/不可能的任务3(台)/职业特工队3(港)
◎片  名 Mission: Impossible III
◎年  代 2006
◎产  地 美国/德国
◎类  别 动作/冒险/惊悚
◎语  言 英语/粤语/德语/意大利语/普通话
◎上映日期 2006-05-05(美国)/2006-07-20(中国大陆)
◎IMDb评分  6.9/10 from 284,874 users
◎IMDb链接  https://www.imdb.com/title/tt0317919/
◎豆瓣评分 7.3/10 from 99,909 users
◎豆瓣链接 https://movie.douban.com/subject/1401533/
◎片  长 126分钟
◎导  演 J·J·艾布拉姆斯 J.J. Abrams
◎主  演 汤姆·克鲁斯 Tom Cruise
      菲利普·塞默·霍夫曼 Philip Seymour Hoffman
      文·瑞姆斯 Ving Rhames
      比利·克鲁德普 Billy Crudup
      米歇尔·莫纳汉 Michelle Monaghan
      乔纳森·莱斯·梅耶斯 Jonathan Rhys Meyers
      凯丽·拉塞尔 Keri Russell
      李美琪 Maggie Q
      西蒙·佩吉 Simon Pegg
      埃迪·马森 Eddie Marsan
      劳伦斯·菲什伯恩 Laurence Fishburne
      巴哈·索莫克 Bahar Soomekh
      杰夫·蔡斯 Jeff Chase
      小迈克尔·贝瑞 Michael Berry Jr.
      卡拉·盖洛 Carla Gallo
      亚伦·保尔 Aaron Paul

◎简  介

  伊森(汤姆·克鲁斯 Tom Cruise 饰)曾是任职于特殊部门的秘密特工,自从一位名叫茱莉亚(米歇尔·莫娜汉 Michelle Monaghan 饰)的美丽女子出现在他的生命里后,伊森决定金盆洗手,卸甲归田。遗憾的是,好景不长,幸福的生活还没过多久,伊森便接到了徒弟林德赛(凯丽·拉塞尔 Keri Russell 饰)被死对头戴维恩(菲利普·塞默·霍夫曼 Philip Seymour Hoffman 饰)掳走的消息。戴维恩冷酷又凶残,林德赛落入他的手中可谓是凶多吉少。
  为了解救林德赛,伊森重操旧业,他组织了一支精干的特工小组,向着目标人物发起了进攻。让伊森没有想到的是,戴维恩的真正目标并不是林德赛,而是茱莉亚,当爱妻落入敌手之时,伊森会做出怎样的反击?


该资源信息参数

  1. Video
  2. ID                                       : 1
  3. Format                                   : AVC
  4. Format/Info                              : Advanced Video Codec
  5. Format profile                           : High@L4.1
  6. Format settings                          : CABAC / 5 Ref Frames
  7. Format settings, CABAC                   : Yes
  8. Format settings, ReFrames                : 5 frames
  9. Codec IM                                 : I5QAYOL9X6A8XZ
  10. Codec ID                                 : V_MPEG4/ISO/AVC
  11. Duration                                 : 2 h 5 min
  12. Bit rate                                 : 15.9 Mb/s
  13. Width                                    : 1 920 pixels
  14. Height                                   : 800 pixels
  15. Display aspect ratio                     : 2.40:1
  16. Frame rate mode                          : Constant
  17. Frame rate                               : 23.976 (24000/1001) FPS
  18. Color space                              : YUV
  19. Chroma subsampling                       : 4:2:0
  20. Bit depth                                : 8 bits #32342
  21. Scan type                                : Progressive
  22. Bits/(Pixel*Frame)                       : 0.431
  23. Stream size                              : 13.9 GiB (91%)
  24. Title                                    : Mission.Impossible.III.2006.1080p.BluRay.x264.DTS-SWTYBLZ
  25. Writing library                          : x264 core 148 r2748 97eaef2
  26. Encoding settings                        : cabac=1 / ref=5 / deblock=1:-1:-1 / analyse=0x3:0x133 / me=umh / subme=10 / psy=1 / psy_rd=1.00:0.15 / mixed_ref=1 / me_range=48 / chroma_me=1 / trellis=2 / 8x8dct=1 / cqm=0 / deadzone=21,11 / fast_pskip=1 / chroma_qp_offset=-3 / threads=25 / lookahead_threads=4 / sliced_threads=0 / nr=0 / decimate=0 / interlaced=0 / bluray_compat=0 / constrained_intra=0 / bframes=8 / b_pyramid=2 / b_adapt=2 / b_bias=0 / direct=3 / weightb=1 / open_gop=0 / weightp=2 / keyint=250 / keyint_min=23 / scenecut=40 / intra_refresh=0 / rc_lookahead=60 / rc=crf / mbtree=1 / crf=17.0 / qcomp=0.60 / qpmin=0 / qpmax=69 / qpstep=4 / ip_ratio=1.40 / aq=1:1.00
  27. Language                                 : English
  28. Default                                  : Yes
  29. Forced                                   : No

  30. Audio
  31. ID                                       : 2
  32. Format                                   : DTS
  33. Format/Info                              : Digital Theater Systems
  34. Codec IM                                 : I5QAYOL9X6A8XZ
  35. Codec ID                                 : A_DTS
  36. Duration                                 : 2 h 5 min
  37. Bit rate mode                            : Constant
  38. Bit rate                                 : 1 509 kb/s
  39. Channel(s)                               : 6 channels
  40. Channel positions                        : Front: L C R, Side: L R, LFE
  41. Sampling rate                            : 48.0 kHz
  42. Frame rate                               : 93.750 FPS (512 SPF)
  43. Bit depth                                : 16 bits
  44. Compression mode                         : Lossy
  45. Stream size                              : 1.32 GiB (9%)
  46. Title                                    : Mission.Impossible.III.2006.1080p.BluRay.x264.DTS-SWTYBLZ
  47. Language                                 : English
  48. Default                                  : Yes
  49. Forced                                   : No

  50. Text
  51. ID                                       : 3
  52. Format                                   : UTF-8
  53. Codec IM                                 : I5QAYOL9X6A8XZ
  54. Codec ID                                 : S_TEXT/UTF8
  55. Codec IM                                 : I5QAYOL9X6A8XZ
  56. Codec ID/Info                            : UTF-8 Plain Text
  57. Duration                                 : 1 h 57 min
  58. Bit rate                                 : 50 b/s
  59. Count of elements                        : 1208
  60. Stream size                              : 43.3 KiB (0%)
  61. Language                                 : English
  62. Default                                  : Yes
  63. Forced                                   : No

  64. Menu
  65. 00:00:00.000                             : en:Chapter 1
  66. 00:04:02.450                             : en:Chapter 2
  67. 00:12:57.860                             : en:Chapter 3
  68. 00:21:18.068                             : en:Chapter 4
  69. 00:26:32.299                             : en:Chapter 5
  70. 00:32:56.474                             : en:Chapter 6
  71. 00:39:30.493                             : en:Chapter 7
  72. 00:46:56.438                             : en:Chapter 8
  73. 00:51:44.309                             : en:Chapter 9
  74. 00:57:34.868                             : en:Chapter 10
  75. 01:02:08.975                             : en:Chapter 11
  76. 01:09:06.642                             : en:Chapter 12
  77. 01:18:19.236                             : en:Chapter 13
  78. 01:23:31.381                             : en:Chapter 14
  79. 01:27:35.083                             : en:Chapter 15
  80. 01:34:08.017                             : en:Chapter 16
  81. 01:42:43.448                             : en:Chapter 17
  82. 01:51:10.830                             : en:Chapter 18
  83. 01:57:27.832                             : en:Chapter 19
复制代码


精彩剧照

碟中谍3/不可能的任务3 Mission.Impossible.III.2006.REMASTERED.1080p.BluRay.x264.DTS-SWTYBLZ 15.22GB-2.png 碟中谍3/不可能的任务3 Mission.Impossible.III.2006.REMASTERED.1080p.BluRay.x264.DTS-SWTYBLZ 15.22GB-3.png 碟中谍3/不可能的任务3 Mission.Impossible.III.2006.REMASTERED.1080p.BluRay.x264.DTS-SWTYBLZ 15.22GB-4.png

蓝光高清网提示您 点击下方附件名称 马上开始下载

Mission.Impossible.III.2006.REMASTERED.1080p.BluRay.x264.DTS-SWTYBLZ.torrent ( 76.63 KB )



温馨提示:
本站资源优先使用迅雷下载,迅雷会员下载,速度基本可以跑满宽带
如果遇到无资源或者版权问题无法下载,推荐使用115网盘离线下载(点击查看115网盘离线下载教程


加入蓝光高清网VIP会员  无限制下载本站所有资源---点这里

资源下载、资源播放、字幕使用、无法下载等常见问题---点这里
回复

使用道具 举报

全部回复0 显示全部楼层

发表回复

您需要登录后才可以回帖 登录 | 立即注册

本版积分规则