本站已运行

蓝光高清网

搜索
开启左侧

[剧情] 坏种 The.Bad.Seed.1956.1080p.BluRay.x264.DTS-NOGRP 9.70GB

蓝鸟 发表于 2019-9-4 14:04:37 | 显示全部楼层 |阅读模式
坏种 The.Bad.Seed.1956.1080p.BluRay.x264.DTS-NOGRP 9.70GB-1.jpg
◎译  名 坏种
◎片  名 The Bad Seed
◎年  代 1956
◎产  地 美国
◎类  别 剧情/恐怖/悬疑/惊悚
◎语  言 英语
◎上映日期 1956-09-12
◎IMDb评分  7.5/10 from 10,871 users
◎IMDb链接  https://www.imdb.com/title/tt0048977/
◎豆瓣评分 7.8/10 from 1,421 users
◎豆瓣链接 https://movie.douban.com/subject/1478336/
◎片  长 129 分钟
◎导  演 Mervyn LeRoy
◎主  演 Nancy Kelly
      Patricia McCormack

◎简  介

  默夫云·莱罗于1956年执导的精典文艺故事片,讲述了一个因女儿的“可爱”而逐渐走向崩溃的家庭的故事。整个故事并不复杂,但却可以让人产生一种抓心挠肺的感觉,其中所蕴含的深层意思,颇值得大家深思!
  克里斯汀似乎有着一个完美的家庭,“可爱”的女儿和体贴的丈夫,但是女儿种种难以置信的行为,使克里斯汀一直承受着不断重演的噩梦的困扰。女儿是个很有礼貌的八岁小女孩,无论她要什么总是不顾一切,甚至致别人的生死而不顾的去得到,对于女儿所犯罪行的痛心和对女儿的爱,让她深深的感到痛苦,当她知晓女儿所犯下不可饶恕的错误后,克里斯汀彻底崩溃了……

◎获奖情况

  第29届奥斯卡金像奖  (1957)
  最佳女主角(提名) 南茜·凯利
  最佳女配角(提名) 艾琳·哈卡特 / 帕特里夏·麦科马克
  黑白片最佳摄影(提名) 哈罗德·罗森


该资源信息参数

  1. Video
  2. ID                                       : 1
  3. Format                                   : AVC
  4. Format/Info                              : Advanced Video Codec
  5. Format profile                           : High@L4.1
  6. Format settings                          : CABAC / 4 Ref Frames
  7. Format settings, CABAC                   : Yes
  8. Format settings, ReFrames                : 4 frames
  9. Codec IM                                 : I5QAYOL9X6A8XZ
  10. Codec ID                                 : V_MPEG4/ISO/AVC
  11. Duration                                 : 2 h 9 min
  12. Bit rate                                 : 10 000 kb/s
  13. Width                                    : 1 920 pixels
  14. Height                                   : 1 080 pixels
  15. Display aspect ratio                     : 16:9
  16. Frame rate mode                          : Constant
  17. Frame rate                               : 23.976 (24000/1001) FPS
  18. Color space                              : YUV
  19. Chroma subsampling                       : 4:2:0
  20. Bit depth                                : 8 bits #32342
  21. Scan type                                : Progressive
  22. Bits/(Pixel*Frame)                       : 0.201
  23. Stream size                              : 9.00 GiB (93%)
  24. Writing library                          : x264 core 142 r2479 dd79a61
  25. Encoding settings                        : cabac=1 / ref=3 / deblock=1:0:0 / analyse=0x3:0x113 / me=hex / subme=7 / psy=1 / psy_rd=1.00:0.00 / mixed_ref=1 / me_range=16 / chroma_me=1 / trellis=1 / 8x8dct=1 / cqm=0 / deadzone=21,11 / fast_pskip=1 / chroma_qp_offset=-2 / threads=12 / lookahead_threads=2 / sliced_threads=0 / nr=0 / decimate=1 / interlaced=0 / bluray_compat=0 / constrained_intra=0 / bframes=3 / b_pyramid=2 / b_adapt=1 / b_bias=0 / direct=1 / weightb=1 / open_gop=0 / weightp=2 / keyint=240 / keyint_min=24 / scenecut=40 / intra_refresh=0 / rc_lookahead=40 / rc=abr / mbtree=1 / bitrate=10000 / ratetol=1.0 / qcomp=0.60 / qpmin=0 / qpmax=69 / qpstep=4 / vbv_maxrate=62500 / vbv_bufsize=78125 / nal_hrd=none / filler=0 / ip_ratio=1.40 / aq=1:1.00
  26. Language                                 : English
  27. Default                                  : Yes
  28. Forced                                   : No
  29. Color range                              : Limited
  30. Color primaries                          : BT.709
  31. Transfer characteristics                 : BT.709
  32. Matrix coefficients                      : BT.709

  33. Audio
  34. ID                                       : 2
  35. Format                                   : DTS
  36. Format/Info                              : Digital Theater Systems
  37. Codec IM                                 : I5QAYOL9X6A8XZ
  38. Codec ID                                 : A_DTS
  39. Duration                                 : 2 h 9 min
  40. Bit rate mode                            : Constant
  41. Bit rate                                 : 768 kb/s
  42. Channel(s)                               : 1 channel
  43. Channel positions                        : Front: C
  44. Sampling rate                            : 48.0 kHz
  45. Frame rate                               : 93.750 FPS (512 SPF)
  46. Bit depth                                : 24 bits
  47. Compression mode                         : Lossy
  48. Stream size                              : 710 MiB (7%)
  49. Language                                 : English
  50. Default                                  : Yes
  51. Forced                                   : No

  52. Text
  53. ID                                       : 3
  54. Format                                   : UTF-8
  55. Codec IM                                 : I5QAYOL9X6A8XZ
  56. Codec ID                                 : S_TEXT/UTF8
  57. Codec IM                                 : I5QAYOL9X6A8XZ
  58. Codec ID/Info                            : UTF-8 Plain Text
  59. Duration                                 : 2 h 7 min
  60. Bit rate                                 : 90 b/s
  61. Count of elements                        : 1955
  62. Stream size                              : 84.4 KiB (0%)
  63. Language                                 : English
  64. Default                                  : Yes
  65. Forced                                   : No

  66. Menu
  67. 00:00:00.000                             : :Chapter 1
  68. 00:01:34.845                             : :Chapter 2
  69. 00:05:07.516                             : :Chapter 3
  70. 00:07:10.055                             : :Chapter 4
  71. 00:12:42.845                             : :Chapter 5
  72. 00:14:49.847                             : :Chapter 6
  73. 00:20:25.975                             : :Chapter 7
  74. 00:23:04.800                             : :Chapter 8
  75. 00:26:34.426                             : :Chapter 9
  76. 00:29:43.615                             : :Chapter 10
  77. 00:36:06.706                             : :Chapter 11
  78. 00:43:25.812                             : :Chapter 12
  79. 00:45:21.552                             : :Chapter 13
  80. 00:47:15.082                             : :Chapter 14
  81. 00:53:58.152                             : :Chapter 15
  82. 00:55:36.792                             : :Chapter 16
  83. 01:00:24.663                             : :Chapter 17
  84. 01:02:33.208                             : :Chapter 18
  85. 01:05:35.682                             : :Chapter 19
  86. 01:11:20.109                             : :Chapter 20
  87. 01:16:10.941                             : :Chapter 21
  88. 01:21:24.922                             : :Chapter 22
  89. 01:27:49.723                             : :Chapter 23
  90. 01:33:44.202                             : :Chapter 24
  91. 01:35:11.164                             : :Chapter 25
  92. 01:37:23.129                             : :Chapter 26
  93. 01:44:24.383                             : :Chapter 27
  94. 01:49:46.413                             : :Chapter 28
  95. 01:54:49.633                             : :Chapter 29
  96. 01:56:40.118                             : :Chapter 30
  97. 02:00:22.132                             : :Chapter 31
  98. 02:01:48.676                             : :Chapter 32
  99. 02:03:30.862                             : :Chapter 33
  100. 02:05:08.334                             : :Chapter 34
  101. 02:06:38.007                             : :Chapter 35
  102. 02:07:32.728                             : :Chapter 36
复制代码


精彩剧照

坏种 The.Bad.Seed.1956.1080p.BluRay.x264.DTS-NOGRP 9.70GB-2.png 坏种 The.Bad.Seed.1956.1080p.BluRay.x264.DTS-NOGRP 9.70GB-3.png 坏种 The.Bad.Seed.1956.1080p.BluRay.x264.DTS-NOGRP 9.70GB-4.png

蓝光高清网提示您 点击下方附件名称 马上开始下载

The.Bad.Seed.1956.1080p.BluRay.x264.DTS-NOGRP.torrent ( 97.48 KB )



温馨提示:
本站资源优先使用迅雷下载,迅雷会员下载,速度基本可以跑满宽带
如果遇到无资源或者版权问题无法下载,推荐使用115网盘离线下载(点击查看115网盘离线下载教程


加入蓝光高清网VIP会员  无限制下载本站所有资源---点这里

资源下载、资源播放、字幕使用、无法下载等常见问题---点这里
回复

使用道具 举报

全部回复0 显示全部楼层

发表回复

您需要登录后才可以回帖 登录 | 立即注册

本版积分规则