本站已运行

蓝光高清网

搜索
开启左侧

[动画] 花园精灵 Gnome.Alone.2017.1080p.BluRay.x264-JustWatch 6.55GB

蓝鸟 发表于 2019-9-4 14:39:31 | 显示全部楼层 |阅读模式
花园精灵 Gnome.Alone.2017.1080p.BluRay.x264-JustWatch 6.55GB-1.jpg
◎译  名 花园精灵
◎片  名 Gnome Alone
◎年  代 2018
◎产  地 加拿大
◎类  别 动画
◎语  言 英语
◎上映日期 2018-03-02(美国)
◎IMDb评分  5.7/10 from 340 users
◎IMDb链接  https://www.imdb.com/title/tt5851786/
◎豆瓣评分 /10 from 0 users
◎豆瓣链接 https://movie.douban.com/subject/27078565/
◎片  长 85分钟
◎导  演 彼得·莱佩尼奥蒂斯 Peter Lepeniotis
◎主  演 贝姬·戈麦斯 Becky G
      乔希·佩克 Josh Peck
      乔治·洛佩兹 George Lopez
      帕特里克·斯坦普 Patrick Stump

◎简  介

  Smith Global影业买下3QU动画电影[花园精灵](Gnome Alone,暂译)发行权。[花园精灵]讲述了一位名叫克洛伊的高中女生,在花园里装饰物们的陪伴下,融入学校生活的故事。影片将于近期上映。


该资源信息参数

  1. Video
  2. ID                                       : 1
  3. Format                                   : AVC
  4. Format/Info                              : Advanced Video Codec
  5. Format profile                           : High@L4.1
  6. Format settings                          : CABAC / 4 Ref Frames
  7. Format settings, CABAC                   : Yes
  8. Format settings, RefFrames               : 4 frames
  9. Codec IM                                 : I5QAYOL9X6A8XZ
  10. Codec ID                                 : V_MPEG4/ISO/AVC
  11. Duration                                 : 1 h 25 min
  12. Bit rate                                 : 9 500 kb/s
  13. Width                                    : 1 920 pixels
  14. Height                                   : 1 040 pixels
  15. Display aspect ratio                     : 1.85:1
  16. Frame rate mode                          : Constant
  17. Frame rate                               : 23.976 (24000/1001) FPS
  18. Color space                              : YUV
  19. Chroma subsampling                       : 4:2:0
  20. Bit depth                                : 8 bits #32342
  21. Scan type                                : Progressive
  22. Bits/(Pixel*Frame)                       : 0.198
  23. Stream size                              : 5.52 GiB (84%)
  24. Writing library                          : x264 core 155 r2901 7d0ff22
  25. Encoding settings                        : cabac=1 / ref=4 / deblock=1:-2:-2 / analyse=0x3:0x113 / me=umh / subme=8 / psy=1 / psy_rd=1.00:0.00 / mixed_ref=1 / me_range=16 / chroma_me=1 / trellis=2 / 8x8dct=1 / cqm=0 / deadzone=21,11 / fast_pskip=1 / chroma_qp_offset=-2 / threads=32 / lookahead_threads=5 / sliced_threads=0 / nr=0 / decimate=1 / interlaced=0 / bluray_compat=0 / constrained_intra=0 / bframes=3 / b_pyramid=2 / b_adapt=2 / b_bias=0 / direct=3 / weightb=1 / open_gop=0 / weightp=2 / keyint=240 / keyint_min=24 / scenecut=40 / intra_refresh=0 / rc_lookahead=50 / rc=2pass / mbtree=1 / bitrate=9500 / ratetol=1.0 / qcomp=0.60 / qpmin=0 / qpmax=69 / qpstep=4 / cplxblur=20.0 / qblur=0.5 / ip_ratio=1.40 / aq=1:1.00
  26. Language                                 : English
  27. Default                                  : Yes
  28. Forced                                   : No

  29. Audio
  30. ID                                       : 2
  31. Format                                   : DTS
  32. Format/Info                              : Digital Theater Systems
  33. Mode                                     : 16
  34. Format settings, Endianness              : Big
  35. Codec IM                                 : I5QAYOL9X6A8XZ
  36. Codec ID                                 : A_DTS
  37. Duration                                 : 1 h 25 min
  38. Bit rate mode                            : Constant
  39. Bit rate                                 : 1 509 kb/s
  40. Channel(s)                               : 6 channels
  41. Channel positions                        : Front: L C R, Side: L R, LFE
  42. Sampling rate                            : 48.0 kHz
  43. Frame rate                               : 93.750 FPS (512 SPF)
  44. Bit depth                                : 24 bits
  45. Compression mode                         : Lossy
  46. Stream size                              : 920 MiB (14%)
  47. Language                                 : English
  48. Default                                  : Yes
  49. Forced                                   : No

  50. Menu
  51. 00:00:00.000                             : en:00:00:00.000
  52. 00:07:22.651                             : en:00:07:22.651
  53. 00:14:43.841                             : en:00:14:43.841
  54. 00:20:28.519                             : en:00:20:28.519
  55. 00:26:10.778                             : en:00:26:10.778
  56. 00:32:48.466                             : en:00:32:48.466
  57. 00:38:50.703                             : en:00:38:50.703
  58. 00:46:32.248                             : en:00:46:32.248
  59. 00:53:05.724                             : en:00:53:05.724
  60. 00:59:11.131                             : en:00:59:11.131
  61. 01:06:13.386                             : en:01:06:13.386
  62. 01:14:18.996                             : en:01:14:18.996
复制代码


精彩剧照

花园精灵 Gnome.Alone.2017.1080p.BluRay.x264-JustWatch 6.55GB-2.jpg

  


蓝光高清网提示您 点击下方附件名称 马上开始下载

Gnome.Alone.2017.1080p.BluRay.x264-JustWatch.torrent ( 131.73 KB )



温馨提示:
本站资源优先使用迅雷下载,迅雷会员下载,速度基本可以跑满宽带
如果遇到无资源或者版权问题无法下载,推荐使用115网盘离线下载(点击查看115网盘离线下载教程


加入蓝光高清网VIP会员  无限制下载本站所有资源---点这里

资源下载、资源播放、字幕使用、无法下载等常见问题---点这里
回复

使用道具 举报

全部回复0 显示全部楼层

发表回复

您需要登录后才可以回帖 登录 | 立即注册

本版积分规则