本站已运行

蓝光高清网

搜索

[悬疑] 距贝克街23步远的地方/雾都疑案 23.Paces.to.Baker.Street.1956.PROPER.1080p.BluRay.x264-CiNEFiLE

蓝鸟 发表于 2019-9-4 21:00:20 | 显示全部楼层 |阅读模式
距贝克街23步远的地方/雾都疑案 23.Paces.to.Baker.Street.1956.PROPER.1080p.BluRay.x264-CiNEFiLE 9.84GB-1.jpg
◎译  名 距贝克街23步远的地方/雾都疑案/盲人破巨案
◎片  名 23 Paces To Baker Street
◎年  代 1956
◎产  地 美国
◎类  别 悬疑/惊悚
◎语  言 英语
◎上映日期 1956
◎IMDb评分  7.0/10 from 1,503 users
◎IMDb链接  https://www.imdb.com/title/tt0048919/
◎豆瓣评分 /10 from 0 users
◎豆瓣链接 https://movie.douban.com/subject/4706601/
◎片  长 103 分钟
◎导  演 Henry Hathaway
◎主  演 Van Johnson
      Vera Miles
      Cecil Parker

◎简  介

  Van Johnson plays a blind American writer who is renting an apartment on Baker Street while in London for the opening of his new play. After a row with his former fiancée (Vera Miles), he decamps to the local pub to drown his self-pity with a drink. There, his acute hearing picks up hushed snatches of conversation from the next booth. Convinced that a kidnap plot is in the offing, he rushes to the police, who are polite but refuse to believe him. However, Johnson knows what he heard is true and engages the help of Vera and Cecil Parker, his secretary, to find the kidnappers and save the unknown victim.
  This terrific suspense film takes interesting chances with the genre. Johnson"s character is a study in frustration, a portrait of a man investigating something he knows exists but cannot see. The direction builds tension well and is supported by a fine musical background which heightens the mood.
  23 Paces to Baker Street was one of several 20th Century-Fox films shot on location in London to take advantage of Fox"s "frozen funds" -- money earned by the studio in England which by law could only be spent in that country.


该资源信息参数

  1. Video
  2. ID                                       : 1
  3. Format                                   : AVC
  4. Format/Info                              : Advanced Video Codec
  5. Format profile                           : High@L4.1
  6. Format settings                          : CABAC / 5 Ref Frames
  7. Format settings, CABAC                   : Yes
  8. Format settings, ReFrames                : 5 frames
  9. Codec IM                                 : I5QAYOL9X6A8XZ
  10. Codec ID                                 : V_MPEG4/ISO/AVC
  11. Duration                                 : 1 h 43 min
  12. Bit rate                                 : 12.1 Mb/s
  13. Width                                    : 1 920 pixels
  14. Height                                   : 760 pixels
  15. Display aspect ratio                     : 2.526
  16. Frame rate mode                          : Constant
  17. Frame rate                               : 23.976 (24000/1001) FPS
  18. Color space                              : YUV
  19. Chroma subsampling                       : 4:2:0
  20. Bit depth                                : 8 bits #32342
  21. Scan type                                : Progressive
  22. Bits/(Pixel*Frame)                       : 0.347
  23. Stream size                              : 8.75 GiB (89%)
  24. Writing library                          : x264 core 148 r2762 90a61ec
  25. Encoding settings                        : cabac=1 / ref=5 / deblock=1:-3:-3 / analyse=0x3:0x113 / me=umh / subme=8 / psy=1 / psy_rd=1.00:0.00 / mixed_ref=1 / me_range=16 / chroma_me=1 / trellis=2 / 8x8dct=1 / cqm=0 / deadzone=21,11 / fast_pskip=0 / chroma_qp_offset=-2 / threads=12 / lookahead_threads=2 / sliced_threads=0 / nr=0 / decimate=1 / interlaced=0 / bluray_compat=0 / constrained_intra=0 / bframes=3 / b_pyramid=2 / b_adapt=1 / b_bias=0 / direct=1 / weightb=1 / open_gop=0 / weightp=2 / keyint=250 / keyint_min=23 / scenecut=40 / intra_refresh=0 / rc_lookahead=40 / rc=2pass / mbtree=1 / bitrate=12125 / ratetol=1.0 / qcomp=0.60 / qpmin=0 / qpmax=69 / qpstep=4 / cplxblur=20.0 / qblur=0.5 / ip_ratio=1.40 / aq=1:1.00
  26. Language                                 : English
  27. Default                                  : Yes
  28. Forced                                   : No

  29. Audio
  30. ID                                       : 2
  31. Format                                   : DTS
  32. Format/Info                              : Digital Theater Systems
  33. Codec IM                                 : I5QAYOL9X6A8XZ
  34. Codec ID                                 : A_DTS
  35. Duration                                 : 1 h 43 min
  36. Bit rate mode                            : Constant
  37. Bit rate                                 : 1 509 kb/s
  38. Channel(s)                               : 2 channels
  39. Channel positions                        : Front: L R
  40. Sampling rate                            : 48.0 kHz
  41. Frame rate                               : 93.750 FPS (512 SPF)
  42. Bit depth                                : 16 bits
  43. Compression mode                         : Lossy
  44. Stream size                              : 1.09 GiB (11%)
  45. Language                                 : English
  46. Default                                  : Yes
  47. Forced                                   : No

  48. Text
  49. ID                                       : 3
  50. Format                                   : UTF-8
  51. Codec IM                                 : I5QAYOL9X6A8XZ
  52. Codec ID                                 : S_TEXT/UTF8
  53. Codec IM                                 : I5QAYOL9X6A8XZ
  54. Codec ID/Info                            : UTF-8 Plain Text
  55. Duration                                 : 1 h 40 min
  56. Bit rate                                 : 70 b/s
  57. Count of elements                        : 1329
  58. Stream size                              : 51.7 KiB (0%)
  59. Language                                 : English
  60. Default                                  : No
  61. Forced                                   : No

  62. Menu
  63. 00:00:00.000                             : en:00:00:00.000
  64. 00:10:10.109                             : en:00:10:10.109
  65. 00:22:57.751                             : en:00:22:57.751
  66. 00:36:45.078                             : en:00:36:45.078
  67. 00:53:09.895                             : en:00:53:09.895
  68. 01:05:32.387                             : en:01:05:32.387
  69. 01:20:55.976                             : en:01:20:55.976
  70. 01:28:18.251                             : en:01:28:18.251
复制代码


精彩剧照

距贝克街23步远的地方/雾都疑案 23.Paces.to.Baker.Street.1956.PROPER.1080p.BluRay.x264-CiNEFiLE 9.84GB-2.png 距贝克街23步远的地方/雾都疑案 23.Paces.to.Baker.Street.1956.PROPER.1080p.BluRay.x264-CiNEFiLE 9.84GB-3.png 距贝克街23步远的地方/雾都疑案 23.Paces.to.Baker.Street.1956.PROPER.1080p.BluRay.x264-CiNEFiLE 9.84GB-4.png

蓝光高清网提示您 点击下方附件名称 马上开始下载

23.Paces.to.Baker.Street.1956.PROPER.1080p.BluRay.x264-CiNEFiLE.torrent ( 98.91 KB )



温馨提示:
本站资源优先使用迅雷下载,迅雷会员下载,速度基本可以跑满宽带
如果遇到无资源或者版权问题无法下载,推荐使用115网盘离线下载(点击查看115网盘离线下载教程


加入蓝光高清网VIP会员  无限制下载本站所有资源---点这里

资源下载、资源播放、字幕使用、无法下载等常见问题---点这里
回复

使用道具 举报

全部回复0 显示全部楼层

发表回复

您需要登录后才可以回帖 登录 | 立即注册

本版积分规则

楼主

超级版主

热门推荐

开通会员 帮助中心 返回顶部 返回列表