本站已运行

蓝光高清网

搜索
开启左侧

[犯罪] 执行者 Execution.Squad.1972.DUBBED.1080p.BluRay.x264-GUACAMOLE 6.55GB

蓝鸟 发表于 2019-9-4 21:12:01 | 显示全部楼层 |阅读模式
执行者 Execution.Squad.1972.DUBBED.1080p.BluRay.x264-GUACAMOLE 6.55GB-1.jpg
◎译  名 执行者
◎片  名 La polizia ringrazia
◎年  代 1972
◎产  地 意大利/法国/西德
◎类  别 犯罪/剧情
◎语  言 意大利语
◎上映日期 1972
◎IMDb评分  7.2/10 from 357 users
◎IMDb链接  https://www.imdb.com/title/tt0069109/
◎豆瓣评分 /10 from 0 users
◎豆瓣链接 https://movie.douban.com/subject/3861925/
◎片  长 100 分钟
◎导  演 Steno
◎主  演 Enrico Maria Salerno
      Mariangela Melato
      Mario Adorf

◎简  介

  Director Steno (birth name: Stefano Vanzina) is best known as a director of comedy (e.g. films with Bud Spencer and Terence Hill), but this crime thriller is everything but a comedy. It tells the gripping story of an organized vigilante group that kills criminals who couldn"t be convicted by the police.
  Enrico Maria Salerno is brilliant as the police officer who tries to discover the big ones behind the vigilante group. Mario Adorf is convincing as ever - once more portraying a rather dubious district attorney. This Italian-German co-production is also remarkable for singer Jürgen Drews who plays one of the criminals that fall victim to the vigilantes.
  All in all, "La Polizia Ringrazia" delivers impressive social comment and handles the topic with a complexity one rarely sees in a crime thriller. Highly recommended.
  imdb comment


该资源信息参数

  1. Video
  2. ID                                       : 1
  3. Format                                   : AVC
  4. Format/Info                              : Advanced Video Codec
  5. Format profile                           : High@L4.1
  6. Format settings                          : CABAC / 5 Ref Frames
  7. Format settings, CABAC                   : Yes
  8. Format settings, RefFrames               : 5 frames
  9. Codec IM                                 : I5QAYOL9X6A8XZ
  10. Codec ID                                 : V_MPEG4/ISO/AVC
  11. Duration                                 : 1 h 37 min
  12. Bit rate                                 : 9 337 kb/s
  13. Width                                    : 1 920 pixels
  14. Height                                   : 816 pixels
  15. Display aspect ratio                     : 2.35:1
  16. Frame rate mode                          : Constant
  17. Frame rate                               : 23.976 (24000/1001) FPS
  18. Color space                              : YUV
  19. Chroma subsampling                       : 4:2:0
  20. Bit depth                                : 8 bits #32342
  21. Scan type                                : Progressive
  22. Bits/(Pixel*Frame)                       : 0.249
  23. Stream size                              : 6.38 GiB (97%)
  24. Writing library                          : x264 core 155 r2901 7d0ff22
  25. Encoding settings                        : cabac=1 / ref=5 / deblock=1:0:0 / analyse=0x3:0x113 / me=umh / subme=8 / psy=1 / psy_rd=1.00:0.00 / mixed_ref=1 / me_range=16 / chroma_me=1 / trellis=2 / 8x8dct=1 / cqm=0 / deadzone=21,11 / fast_pskip=0 / chroma_qp_offset=-2 / threads=12 / lookahead_threads=2 / sliced_threads=0 / nr=0 / decimate=1 / interlaced=0 / bluray_compat=0 / constrained_intra=0 / bframes=3 / b_pyramid=2 / b_adapt=1 / b_bias=0 / direct=1 / weightb=1 / open_gop=0 / weightp=2 / keyint=250 / keyint_min=23 / scenecut=40 / intra_refresh=0 / rc_lookahead=50 / rc=2pass / mbtree=1 / bitrate=9337 / ratetol=1.0 / qcomp=0.60 / qpmin=0 / qpmax=69 / qpstep=4 / cplxblur=20.0 / qblur=0.5 / ip_ratio=1.40 / aq=1:1.00
  26. Default                                  : Yes
  27. Forced                                   : No

  28. Audio
  29. ID                                       : 2
  30. Format                                   : DTS
  31. Format/Info                              : Digital Theater Systems
  32. Mode                                     : 16
  33. Format settings, Endianness              : Big
  34. Codec IM                                 : I5QAYOL9X6A8XZ
  35. Codec ID                                 : A_DTS
  36. Duration                                 : 1 h 37 min
  37. Bit rate mode                            : Constant
  38. Bit rate                                 : 255 kb/s
  39. Channel(s)                               : 2 channels
  40. Channel positions                        : Front: L R
  41. Sampling rate                            : 48.0 kHz
  42. Frame rate                               : 93.750 FPS (512 SPF)
  43. Bit depth                                : 24 bits
  44. Compression mode                         : Lossy
  45. Stream size                              : 178 MiB (3%)
  46. Default                                  : Yes
  47. Forced                                   : No
复制代码


精彩剧照

执行者 Execution.Squad.1972.DUBBED.1080p.BluRay.x264-GUACAMOLE 6.55GB-2.jpg

蓝光高清网提示您 点击下方附件名称 马上开始下载

Execution.Squad.1972.DUBBED.1080p.BluRay.x264-GUACAMOLE.torrent ( 131.59 KB )



温馨提示:
本站资源优先使用迅雷下载,迅雷会员下载,速度基本可以跑满宽带
如果遇到无资源或者版权问题无法下载,推荐使用115网盘离线下载(点击查看115网盘离线下载教程


加入蓝光高清网VIP会员  无限制下载本站所有资源---点这里

资源下载、资源播放、字幕使用、无法下载等常见问题---点这里
回复

使用道具 举报

全部回复0 显示全部楼层

发表回复

您需要登录后才可以回帖 登录 | 立即注册

本版积分规则