本站已运行

蓝光高清网

搜索
开启左侧

[剧情] 美丽小蜜桃 [英语中字]Pretty Peaches.1978.US.Limited Ed.BluRay.1920x1080p.x264.AC3-KOOK 10

 
蓝鸟 发表于 2020-3-13 21:46:28 | 显示全部楼层 |阅读模式

美丽小蜜桃.Pretty Peaches.1978.US.Limited Ed.BluRay.1920x1080p.x264.AC3-KOOK.[英语中字] 10G


无广告,无水印,欢迎转载

不定时做种,保证出种,请耐心等待.

美丽小蜜桃 [英语中字]Pretty Peaches.1978.US.Limited Ed.BluRay.1920x1080p.x264.AC3-KOOK 10.02GB ... ...

美丽小蜜桃 [英语中字]Pretty Peaches.1978.US.Limited Ed.BluRay.1920x1080p.x264.AC3-KOOK 10.02GB ... ...


※※※※※※※ 影片信息 ※※※※※※※


片   名 Pretty Peaches

译   名 美丽小蜜桃 / 漂亮的桃子

年   代 1978

国   家 美国

类   别 情色

语   言 英语

上映日 期 1978-12-27(美国)

字   幕 中简体字幕/繁体字幕

IMDB 评分  6.6/10 from 431 users

豆瓣 评分  6.4/10 from 370 users

视频尺 寸  1920x1080p

片   长 1.32.18

导   演 亚历克斯·德·阮泽

主   演 Juliet Anderson / Lisa Sue Corey / Desiree Cousteau / Liza Dwyer / Flower / Phaedra Grant / Blair Harris / Nancy Hoffman / Ming Jade / Sharon Kane / Kathy Kaufman / John Leslie / Turk Lyon / Holly McCall / Mimi Morgan / Ken Scudder / Joey Silvera / Paul Thomas / Eileen Welles


#447


简  介


 桃子去参加爸爸的婚礼,在婚礼上因为喝多了,发生了车祸并且失了忆,于是,她的命运从此被改写...

 剧情概念来自伏尔泰名著《憨第德》,失忆女子滑稽冒险性爱经历


※※※※※※※ 参数信息 ※※※※※※※



该资源信息参数
  1. General<p>
  2. Unique ID                      : 180572353579915561032400470360297696358 (0x87D8F864D8D8741A81C3376EF4BDEC66)</p><p>
  3. Complete name                  : F:\电影1\zz\Pretty Peaches 1978 XXX Limited Ed Blu-ray 1080p x264-PornLeech\美丽小蜜桃.Pretty Peaches.1978.US.Limited Ed.BluRay.1920x1080p.x264.AC3-KOOK.[英语中字].mkv</p><p>
  4. Format                         : Matroska</p><p>
  5. Format version                 : Version 4 / Version 2</p><p>
  6. File size                      : 10.0 GiB</p><p>
  7. Duration                       : 1h 32mn</p><p>
  8. Overall bit rate               : 15.5 Mbps</p><p>
  9. Movie name                     : KOOK</p><p>
  10. Encoded date                   : UTC 2020-02-28 13:28:31</p><p>
  11. Writing application            : mkvmerge v7.7.0 ("Six Voices") 32bit built on Feb 28 2015 23:23:00</p><p>
  12. Writing library                : libebml v1.3.1 + libmatroska v1.4.2</p><p>
  13. Attachements                   : fzlbfw.ttf / fzlbjw.ttf / 正式海报.jpg</p><p>

  14. </p><p>
  15. Video</p><p>
  16. ID                             : 1</p><p>
  17. Format                         : AVC</p><p>
  18. Format/Info                    : Advanced Video Codec</p><p>
  19. Format profile                 : High@L4</p><p>
  20. Format settings, CABAC         : Yes</p><p>
  21. Format settings, ReFrames      : 4 frames</p><p>
  22. Codec ID                       : V_MPEG4/ISO/AVC</p><p>
  23. Duration                       : 1h 32mn</p><p>
  24. Bit rate                       : 15.1 Mbps</p><p>
  25. Width                          : 1 920 pixels</p><p>
  26. Height                         : 1 080 pixels</p><p>
  27. Display aspect ratio           : 16:9</p><p>
  28. Frame rate mode                : Constant</p><p>
  29. Frame rate                     : 23.976 (24000/1001) fps</p><p>
  30. Color space                    : YUV</p><p>
  31. Chroma subsampling             : 4:2:0</p><p>
  32. Bit depth                      : 8 bits</p><p>
  33. Scan type                      : Progressive</p><p>
  34. Bits/(Pixel*Frame)             : 0.303</p><p>
  35. Stream size                    : 9.72 GiB (97%)</p><p>
  36. Title                          : Pretty Peaches 1978 XXX Limited Ed Blu-ray 1080p x264-PornLeech</p><p>
  37. Writing library                : x264 core 146 r2538 121396c</p><p>
  38. Encoding settings              : cabac=1 / ref=4 / deblock=1:-3:-3 / analyse=0x3:0x133 / me=umh / subme=11 / psy=0 / mixed_ref=0 / me_range=28 / chroma_me=1 / trellis=2 / 8x8dct=1 / cqm=0 / deadzone=21,11 / fast_pskip=0 / chroma_qp_offset=1 / threads=12 / lookahead_threads=2 / sliced_threads=0 / nr=0 / decimate=1 / interlaced=0 / bluray_compat=0 / constrained_intra=0 / bframes=7 / b_pyramid=2 / b_adapt=2 / b_bias=0 / direct=3 / weightb=1 / open_gop=0 / weightp=2 / keyint=240 / keyint_min=23 / scenecut=40 / intra_refresh=0 / rc_lookahead=200 / rc=crf / mbtree=1 / crf=17.2 / qcomp=0.60 / qpmin=0 / qpmax=69 / qpstep=4 / vbv_maxrate=62500 / vbv_bufsize=78125 / crf_max=0.0 / nal_hrd=none / filler=0 / ip_ratio=1.30 / aq=1:0.00</p><p>
  39. Default                        : Yes</p><p>
  40. Forced                         : No</p><p>

  41. </p><p>
  42. Audio</p><p>
  43. ID                             : 2</p><p>
  44. Format                         : AC-3</p><p>
  45. Format/Info                    : Audio Coding 3</p><p>
  46. Mode extension                 : CM (complete main)</p><p>
  47. Format settings, Endianness    : Big</p><p>
  48. Codec ID                       : A_AC3</p><p>
  49. Duration                       : 1h 32mn</p><p>
  50. Bit rate mode                  : Constant</p><p>
  51. Bit rate                       : 448 Kbps</p><p>
  52. Channel(s)                     : 1 channel</p><p>
  53. Channel positions              : Front: C</p><p>
  54. Sampling rate                  : 48.0 KHz</p><p>
  55. Frame rate                     : 31.250 fps (1536 spf)</p><p>
  56. Compression mode               : Lossy</p><p>
  57. Stream size                    : 296 MiB (3%)</p><p>
  58. Language                       : English</p><p>
  59. Default                        : Yes</p><p>
  60. Forced                         : No</p><p>

  61. </p><p>
  62. Text #1</p><p>
  63. ID                             : 3</p><p>
  64. Format                         : ASS</p><p>
  65. Codec ID                       : S_TEXT/ASS</p><p>
  66. Codec ID/Info                  : Advanced Sub Station Alpha</p><p>
  67. Duration                       : 1h 32mn</p><p>
  68. Bit rate                       : 78 bps</p><p>
  69. Count of elements              : 814</p><p>
  70. Compression mode               : Lossless</p><p>
  71. Stream size                    : 52.9 KiB (0%)</p><p>
  72. Title                          : 简体字幕</p><p>
  73. Language                       : Chinese</p><p>
  74. Default                        : Yes</p><p>
  75. Forced                         : No</p><p>

  76. </p><p>
  77. Text #2</p><p>
  78. ID                             : 4</p><p>
  79. Format                         : ASS</p><p>
  80. Codec ID                       : S_TEXT/ASS</p><p>
  81. Codec ID/Info                  : Advanced Sub Station Alpha</p><p>
  82. Duration                       : 1h 32mn</p><p>
  83. Bit rate                       : 78 bps</p><p>
  84. Count of elements              : 814</p><p>
  85. Compression mode               : Lossless</p><p>
  86. Stream size                    : 52.9 KiB (0%)</p><p>
  87. Title                          : 繁体字幕</p><p>
  88. Language                       : Chinese</p><p>
  89. Default                        : No</p><p>
  90. Forced                         : No</p><p>

  91. </p><p>
  92. Menu</p><p>
  93. 00:00:00.000                   : en:00:00:00.000</p><p>
  94. 00:21:11.979                   : en:00:21:11.979</p><p>
  95. 00:36:46.871                   : en:00:36:46.871</p><p>
  96. 00:57:40.540                   : en:00:57:40.540</p><p>
  97. 01:18:53.103                   : en:01:18:53.103</p><p></p>
复制代码



蓝光高清网提示您 点击下方附件名称 马上开始下载

美丽小蜜桃 [英语中字]Pretty Peaches.1978.US.Limited Ed.BluRay.1920x1080p.x264.AC3-KOOK 10.02GB

美丽小蜜桃.Pretty Peaches.1978.US.Limited Ed.BluRay.1920x1080p.x264.AC3-KOOK.[英.torrent ( 104.54 KB )



加入蓝光高清网VIP会员  无限制下载本站所有资源---点这里

资源下载、资源播放、字幕使用、无法下载等常见问题---点这里
回复

使用道具 举报

全部回复7 显示全部楼层
dong_EWIB 发表于 2020-4-3 17:26:31 | 显示全部楼层

支持蓝光高清网!
回复 支持 反对

使用道具 举报

zhengmiancontu手机认证 发表于 2020-12-6 16:15:04 | 显示全部楼层

感谢蓝光高清网提供的优质资源,希望网站越办越好。
回复 支持 反对

使用道具 举报

fsl432 发表于 2022-3-11 05:44:34 来自手机 | 显示全部楼层
感谢分享!
回复

使用道具 举报

haha2002 发表于 2022-9-2 02:44:49 | 显示全部楼层
谢谢分享
回复

使用道具 举报

qiuyi0122手机认证 发表于 2022-11-21 11:48:15 | 显示全部楼层
支持高清网站,很多经典电影都可以找到!!!
回复 支持 反对

使用道具 举报

想想 发表于 2022-12-26 09:24:21 | 显示全部楼层
真●宝藏网站啊!支持蓝光高清网!
回复 支持 反对

使用道具 举报

wangzhang3手机认证 发表于 2022-12-26 14:15:12 | 显示全部楼层
不怕被封啊
回复 支持 反对

使用道具 举报

发表回复

您需要登录后才可以回帖 登录 | 立即注册

本版积分规则