本站已运行

蓝光高清网

搜索

李尸朝鲜-S01~S02.第1季~第二季完结 内置中文字幕 1080p AAC 2.0 4k韩剧

 
蓝鸟 发表于 2020-3-14 09:47:30 | 显示全部楼层 |阅读模式
李尸朝鲜 豆瓣评分: 8.7分

状态:第1~2季(完结)
上映时间:2020-03-12
类型:动作 剧情 惊悚 
地区:韩国
导演:金成勋 / 朴仁载
主演:朱智勋 / 裴斗娜 / 柳承龙 / 金成圭 / 全锡浩
画质标准:超清(1920x1080) 音轨编码:其他AAC  2.0声道 字幕语言:中文简体 封装格式:MP4 资源大小:每季共6集/每集约2GB
  • 剧集下载
  • 剧集简介
  • 资源INFO
  • 下载说明
  • 《李尸朝鲜》网盘/云盘/BT 下载 Cloud storage / Cloud disk / BT download
     登陆/注册后可查看
  • 《李尸朝鲜》简介 Episode Introduction
    在一个充斥着贪腐和饥荒的王国中,关于国王死亡的神秘传闻沸沸扬扬,同时一场奇怪的瘟疫传播开来,感染者可获得不死之身并嗜食人肉。成为阴谋牺牲品的皇太子开始踏上揭露邪恶阴谋,拯救子民的征程...


    《李尸朝鲜》网盘/云盘/BT 下载 Cloud storage / Cloud disk / BT download
     登陆/注册后可查看
  • 《李尸朝鲜》影片INFO Video INFO
    <font face="Tahoma">General
    Format : MPEG-4
    Format profile : Base Media
    Codec ID : isom (isom/iso2/avc1/mp41)
    File size : 2.17 GiB
    Duration : 52 min 23 s
    Overall bit rate mode : Variable
    Overall bit rate : 5 926 kb/s
    Writing application : ShanaEncoder


    Video
    ID : 1
    Format : AVC
    Format/Info : Advanced Video Codec
    Format profile : High@L4
    Format settings : CABAC / 1 Ref Frames
    Format settings, CABAC : Yes
    Format settings, Reference fra : 1 frame
    Codec ID : avc1
    Codec ID/Info : Advanced Video Coding
    Duration : 52 min 22 s
    Bit rate mode : Variable
    Bit rate : 5 733 kb/s
    Maximum bit rate : 2 000 kb/s
    Width : 1 920 pixels
    Height : 960 pixels
    Display aspect ratio : 2.000
    Frame rate mode : Constant
    Frame rate : 23.976 (24000/1001) FPS
    Color space : YUV
    Chroma subsampling : 4:2:0
    Bit depth : 8 bits
    Scan type : Progressive
    Bits/(Pixel*Frame) : 0.130
    Stream size : 2.10 GiB (97%)
    Codec configuration box : avcC


    Audio
    ID : 2
    Format : AAC LC
    Format/Info : Advanced Audio Codec Low Complexity
    Codec ID : mp4a-40-2
    Duration : 52 min 23 s
    Bit rate mode : Constant
    Bit rate : 192 kb/s
    Channel(s) : 2 channels
    Channel layout : L R
    Sampling rate : 48.0 kHz
    Frame rate : 46.875 FPS (1024 SPF)
    Compression mode : Lossy
    Stream size : 72.0 MiB (3%)
    Default : Yes
    Alternate group : 1</font>



    《李尸朝鲜》网盘/云盘/BT 下载 Cloud storage / Cloud disk / BT download
     登陆/注册后可查看
  • 下载本版资源三步骤
    1、在《4K电视剧列表》找到并打开剧集下载页,点击下载框按钮或复制磁力链,将BT种子下载到电脑中。
    2、电脑安装《BT下载软件》,免费的推荐使用《UTorrent》下载,收费的推荐使用《115网盘》下载(速度又快又稳).
    3、用BT下载软件,打开BT种子、或将磁力链复制粘贴到BT软件中即可下载。


    本站4K电影版块资源99%是真4K,都是从UHD蓝光碟片中提取而来!本站未发布的4K资源,全网都没有(除非假4K),所以发帖求资源也没用。

    下载速度慢怎么办
    1、正常情况使用《UTorrent》跟着网站发布资源节奏下载速度很快,可以达到宽带最大速度(电信)
    2、推荐使用《115网盘》下载速度又快又稳定,请勿使用迅雷下载;
    3、下载慢是有多方面原因,即依赖种子的热度、也要求是电信宽带(非移动/联通),同时选择对的下载软件和软件设置方法。
    4、使用BT协议下载没有速度,请更新《Trackers服务器》能够增加在线用户(越多越好),该方法使用《UTorrent》下载效果显著。
    更多下载问题参考: 4K电影下载新手学院>>

    多个种子/电影版本区别
    蓝光原盘BDMV
    俗称4K蓝光原盘,也就是从4K UHD蓝光碟中提取出来的源文件,由多个m2ts文件组成,与正版盘完全一致,且包含了光盘所有内容 (影片花絮、字幕、导航菜单、多语言多音轨、HDR 信息)等等,文件体积大,一部电影约有60GB+。此版本资源一般以「BDMV 文件夹」或「BDISO」 (iso) 格式发布;该版本可以用刻录机成带导航的光盘效果。

    DIY蓝光原盘BDMV
    经资源制作组基于蓝光原盘BDMV版本进行第二次DIY的版本,将片头AE特效、画面HDR调色、封装国语音轨、封装中文简体/繁体/英文等多语言字幕,更精彩的是是特效字幕(将电影画面中某些细节翻译成中文字幕)。

    蓝光BD-REMUX
    俗称REMUX,可以视为「音画质无损的精简版」"4K原盘",它其实就是将原盘里多余的一些音轨、花絮、菜单、字幕等东西移除或精简,仅保留主要的视频、主要音轨和部分语言字幕,然后再封装成「单个文件」的 .mkv 格式而来,其音质画质与BDMV蓝光原盘一致,但文件体积上能大幅缩减且成单个文件,在电脑上播放/管理/电视播放/播放器播放和分享起来也更方便。适合追求原盘音画质、不重视花絮周边内容、又希望稍微节省点硬盘空间的朋友。

    WEB-DL/WEBRip/流媒体版本
    WEB-DL 或 WEBRip 格式的影片主要来自 、Amazon Prime Video、Netflix、Hulu、YouTube 等「在线网络高清片源」。尽管这些服务提供了4K分辨率 (部分含 HDR) 的片源,但它们为了在线观看的流畅性,都会将视频画质进行较大幅度「有损压缩」。 WEB-DL 是 Web Download 的意思,指通过技术手段「直接下载」回来的在线视频 WEBRip 很多时候则是通过"屏幕转录"等方式二次录制,会造成多一次的画质损失。



    《李尸朝鲜》网盘/云盘/BT 下载 Cloud storage / Cloud disk / BT download
     登陆/注册后可查看
李尸朝鲜-第一季下载 内置中文字幕 1080p AAC 2.0 4kii.com
游客,如果您要查看本帖隐藏内容请回复


李尸朝鲜-第二季下载 内置中文字幕 1080p AAC 2.0 4kii.com
游客,如果您要查看本帖隐藏内容请回复




李尸朝鲜-第二季 内置中文字幕 1080p AAC 2.0 1080pro.net

李尸朝鲜-第二季 内置中文字幕 1080p AAC 2.0 1080pro.net

李尸朝鲜-第二季 内置中文字幕 1080p AAC 2.0 1080pro.net

李尸朝鲜-第二季 内置中文字幕 1080p AAC 2.0 1080pro.net

李尸朝鲜-第二季 内置中文字幕 1080p AAC 2.0 1080pro.net

李尸朝鲜-第二季 内置中文字幕 1080p AAC 2.0 1080pro.net

李尸朝鲜-第二季 内置中文字幕 1080p AAC 2.0 1080pro.net

李尸朝鲜-第二季 内置中文字幕 1080p AAC 2.0 1080pro.net

加入蓝光高清网VIP会员  无限制下载本站所有资源---点这里

资源下载、资源播放、字幕使用、无法下载等常见问题---点这里
回复

使用道具 举报

全部回复295 显示全部楼层
Soul绝版手机认证 发表于 2020-3-14 12:23:26 来自手机 | 显示全部楼层
真心不错,刚想看
回复 支持 反对

使用道具 举报

qq7727 发表于 2020-3-14 16:26:37 | 显示全部楼层
哦吧呀露西
回复 支持 反对

使用道具 举报

zxymjgs 发表于 2020-3-14 22:18:14 | 显示全部楼层
谢谢楼主分享!!!!
回复 支持 反对

使用道具 举报

lyy776666 发表于 2020-3-14 22:30:35 | 显示全部楼层
感谢楼主的分享。
回复 支持 反对

使用道具 举报

烟雨飘渺 发表于 2020-3-14 23:12:44 | 显示全部楼层
hhhhhhhhhhhhhhhhhhhhhh
回复 支持 反对

使用道具 举报

soso 发表于 2020-3-15 00:47:38 来自手机 | 显示全部楼层
谢谢分享
回复

使用道具 举报

紫寒秋 发表于 2020-3-15 10:48:45 | 显示全部楼层
这个电视剧拍得真不错
回复 支持 反对

使用道具 举报

老王 发表于 2020-3-15 11:34:53 | 显示全部楼层
非常感谢蓝光高清网分享的各种知识和资源,祝蓝光高清网越来越好
回复 支持 反对

使用道具 举报

ME8076 发表于 2020-3-15 13:13:40 | 显示全部楼层
怎么才能下载啊?
回复 支持 反对

使用道具 举报

发表回复

您需要登录后才可以回帖 登录 | 立即注册

本版积分规则

开通会员 帮助中心 返回顶部 返回列表