本站已运行

蓝光高清网

搜索
开启左侧

疯狂原始人2/古鲁家族:新石代 The.Croods.A.New.Age.2020.3D.1080p.BluRay.x264-PussyFoot 7.85GB

 
4k演示 发表于 2021-12-7 11:44:39 | 显示全部楼层 |阅读模式
疯狂原始人2 豆瓣评分: 7.7分
片长: 95分钟 ( 2020年上映)
类型:喜剧 动画 冒险 
导演:乔尔·克劳福德
主演:尼古拉斯·凯奇 / 艾玛·斯通 / 瑞安·雷诺兹 / 凯瑟琳·基纳 / 莱斯利·曼恩
3 D 格式:sbs 

封装音轨:Dolby TrueHD 7.1 Dolby Atmos 
简  介
6 d+ A8 M+ u  P. S0 M) U& x8 r1 f( ^/ v. f/ N
  经历了逃离洞穴、挺过末日危机之后的原始人咕噜家族,咕噜一家决定寻找新家园。中途盖(瑞恩·雷诺兹 Ryan Reynolds 配音)已成了咕噜一家中的一员,但让瓜哥(尼古拉斯·凯奇 Nicolas Cage 配音)头疼的是,盖跟女儿小伊(艾玛·斯通 Emma Stone 配音)每天你侬我侬,还妄想组成只属于两人的小家庭。就在咕噜一家人饥肠辘辘之际,他们发现了一片高墙内隐藏着食物丰饶的沃土,原来开辟这片世外桃源的文明人夫妇霍普和菲尔是已经去世的盖的父母的朋友。在最初的热情款待后,一心想要撮合盖和女儿晓晓的霍普和菲尔,发现咕噜一家成了绊脚石,为了把盖抢过来,他们用上了攻心计。两家人闹得不可开交,盖和小伊也产生了裂痕,却浑然不知危险正慢慢靠近……$ J; w- a+ [3 d) a3 x: ]% _! p
9 U# s( B6 n, b, [( Y/ L! U
: G4 H! D# j% X, `3 k: S( I) B/ f  i
6 b# m6 q( Q4 {% W! @
获奖情况
! s3 c1 Y2 S7 D9 `) t" P' r' B  第78届金球奖 ?(2021)! T0 M. P- u& x7 z$ c) {7 q
  电影类最佳动画长片(提名)
4 X  F1 o4 q% Z7 J( ]5 a$ E  
/ \1 k7 H& f" i2 U  第48届动画安妮奖 ?(2021)
3 y8 I9 B8 X0 n4 H# k" k+ ]& t  最佳动画长片(提名)
$ f) L+ o' N0 K6 g/ L  最佳分镜(提名)
' |+ P* K0 Z6 q# o0 y  最佳动画角色(提名)" A: V( j/ s  B. p+ E
  最佳角色设计(提名)
3 d+ |' x# K! W  u  最佳动画效果(提名)6 O- ]  Y0 N; w
  
! V" G+ _  @" K4 n3 [  第32届美国制片人工会奖 ?(2021)
% R/ ~+ g( S* \2 D8 S9 H8 A) y  最佳动画片制片人奖(提名)% t' |' {8 T+ Z9 D5 i: l/ y
  
' O- [7 d4 l! H) g. H8 E/ ?  第71届美国剪辑工会奖 ?(2021)( V- K' M" q. r' V; s
  动画片最佳剪辑(提名); l; C2 A' T+ |( x/ `$ o
  
. e; [5 ?) w9 n% l  第25届美国艺术指导工会奖 ?(2021)
5 \! o+ C2 @* a- {( A0 r  电影奖最佳动画电影艺术指导(提名) 内特·伍拉格. q; ~" g) `3 F" B& i0 K+ U
  0 q0 o& V, B: B2 v& `
  第68届美国音效剪辑协会奖 ?(2021)
( F# f1 T$ |9 z3 z5 g6 Z  金卷轴奖最佳动画片音效剪辑(提名)* _, @8 e* e  c( {6 ?7 E# V5 ]0 N
  
- Z, X6 |; ?3 B7 i; F5 e  第19届美国视觉效果协会奖 ?(2021)
- K+ G0 L8 u5 t( z  最佳动画电影视觉效果(提名)
1 d! ?* g4 a) L; k: V( p  X% u4 D  
3 z6 W- ?: G3 X* }  第57届美国声音效果协会奖 ?(2021)0 X1 V- a- m' l
  动画电影最佳音效(提名)
5 g: Z% V. a! d, Q. J  
- h( e( _+ N: K" Q; ^1 }  第7届豆瓣电影年度榜单 ?(2020)
1 q# A% _6 E  {; ~$ N  q8 M, U  评分最高的外语电影(提名)
$ D% v- ]; ~9 D% s- }  评分最高的动画片
1 u: n7 C& U" P0 d& B! W" _  x6 j
$ g5 a, o: p3 C0 C% ?2 w
影片参数: P% G/ c# }- x
Video% K2 s  e" c9 d7 f4 p, z/ @
ID                                       : 1
; w# J3 \8 V6 A% {0 m; S" eFormat                                   : AVC/ Q6 [& w2 W4 h9 N) ?4 t- P4 b
Format/Info                              : Advanced Video Codec, Y) k1 V8 x- Q% J* d1 u& S8 R
Format profile                           : [email protected]
3 |6 m7 Q# a, r1 Y2 S0 X7 j5 Z5 EFormat settings                          : CABAC / 5 Ref Frames
, M# H% ]1 X# c& L: a  }( RFormat settings, CABAC                   : Yes1 ]0 X' r( b7 g' x7 T
Format settings, Reference frames        : 5 frames
3 y1 H1 X2 e7 w& oCodec ID                                 : V_MPEG4/ISO/AVC0 H$ A5 o' c  L0 _$ i2 l7 _+ y
Duration                                 : 1 h 35 min
1 j! a$ Q+ g! R+ `$ }Bit rate                                 : 8 132 kb/s) C/ o2 y( C! A# l/ i. ?% \$ e4 c
Width                                    : 1 920 pixels& v/ S( L5 E' I, {  p
Height                                   : 816 pixels
' Q; z  d- O5 {% uDisplay aspect ratio                     : 2.35:1
8 H8 U/ z0 L  d# VFrame rate mode                          : Constant
2 H# q) q* v/ q9 vFrame rate                               : 23.976 FPS: a3 l, n1 V5 ~- w2 J3 e
Color space                              : YUV; V( e, y8 q0 M1 ^% \
Chroma subsampling                       : 4:2:0
! L) |" v" l3 g# \3 rBit depth                                : 8 bits
0 G  B) ?% P; i7 G! b2 BScan type                                : Progressive
% ?- A$ t  d* n( T% FBits/(Pixel*Frame)                       : 0.216
  O( m* X* _$ P! S. EStream size                              : 5.41 GiB (69%)
% {# G2 G- G8 e- U  DWriting library                          : x264 core 164 r3075 66a5bc1
1 ?7 O( m$ T& e) G/ {Encoding settings                        : cabac=1 / ref=5 / deblock=1:-3:-3 / analyse=0x3:0x133 / me=umh / subme=8 / psy=1 / psy_rd=1.00:0.00 / mixed_ref=1 / me_range=16 / chroma_me=1 / trellis=2 / 8x8dct=1 / cqm=0 / deadzone=21,11 / fast_pskip=0 / chroma_qp_offset=-2 / threads=24 / lookahead_threads=4 / sliced_threads=0 / nr=0 / decimate=1 / interlaced=0 / bluray_compat=0 / constrained_intra=0 / bframes=3 / b_pyramid=2 / b_adapt=1 / b_bias=0 / direct=3 / weightb=1 / open_gop=0 / weightp=2 / keyint=250 / keyint_min=23 / scenecut=40 / intra_refresh=0 / rc_lookahead=50 / rc=crf / mbtree=1 / crf=17.0 / qcomp=0.60 / qpmin=0 / qpmax=69 / qpstep=4 / ip_ratio=1.40 / aq=1:1.00
/ r1 P, u# K; [, O/ d6 iLanguage                                 : English/ P( }4 G9 {6 H# p6 F5 [; G
Default                                  : Yes; h2 P" F* h4 g- c# Y, v
Forced                                   : No3 i8 ]0 i+ U$ T0 {

# K. x1 N' t, r2 n3 w' n* E

% W& X5 x: D# i- D+ ^  D2 \Audio #1
" ?$ e6 i% G9 n. g% rID                                       : 2
; R5 D: G. n6 U! t' |3 m# hFormat                                   : MLP FBA 16-ch  v, @* y: u, k
Format/Info                              : Meridian Lossless Packing FBA with 16-channel presentation- `; {. x' Q; Q; v5 M7 Q: V
Commercial name                          : Dolby TrueHD with Dolby Atmos+ i: G4 \, W' X4 C
Codec ID                                 : A_TRUEHD6 I. I+ I- f  p) K: {$ K
Duration                                 : 1 h 35 min
$ h/ F3 Y* X1 a% ~( m/ i; gBit rate mode                            : Variable
% u0 H4 |2 B+ _1 x' ABit rate                                 : 3 095 kb/s  q" l* `0 a) T
Maximum bit rate                         : 4 263 kb/s2 M5 f6 g9 o+ Q. O% K3 \8 J9 n  x
Channel(s)                               : 8 channels) j" T* H/ J1 l) C+ t: z8 S& @1 Q
Channel layout                           : L R C LFE Ls Rs Lb Rb
1 y& N( c0 H+ v& K  }Sampling rate                            : 48.0 kHz
; t$ W5 m' @( u$ }) t5 `# L( [Frame rate                               : 1 200.000 FPS (40 SPF)
9 T" I$ X: S  nCompression mode                         : Lossless" c6 T! w' \" I/ G
Stream size                              : 2.06 GiB (26%)
* u) N$ f5 z; C, }6 @  GLanguage                                 : English
+ _* D, ]- Z9 \4 w# v* x" f- z1 @/ wDefault                                  : Yes, h9 e5 P7 {7 v
Forced                                   : No
# N! c: X0 Z/ u; R4 iNumber of dynamic objects                : 11
) g8 v1 \: O5 ?. `/ QBed channel count                        : 1 channel8 P! E0 ]! b: N; b# M. r" ?  z
Bed channel configuration                : LFE
- e# ?1 q, ~' I& P
5 Y5 w" W$ u8 m! G
! ~1 F- H4 ?# f7 o* b1 J( Q
Audio #2
* q% p4 @& J. k. _ID                                       : 3
9 G6 {" @8 s: YFormat                                   : AC-35 J8 \0 g" g, p1 T( L( i" @
Format/Info                              : Audio Coding 3
2 h% y0 K4 Z) Y  [6 H2 @Commercial name                          : Dolby Digital
% y, @9 n/ S4 \; K! ECodec ID                                 : A_AC3
6 b( ^  E+ D0 r9 f7 L4 t. bDuration                                 : 1 h 35 min
, |2 Y1 h$ j6 D. Q. S6 \$ T1 M- [' \$ QBit rate mode                            : Constant
# m' s. g, |; PBit rate                                 : 448 kb/s4 s. @7 R, |# ]% X: a) `' M
Channel(s)                               : 6 channels5 y* `5 H9 R; O7 ?) q
Channel layout                           : L R C LFE Ls Rs
2 D% g, H& X; f9 ]: a1 ]Sampling rate                            : 48.0 kHz, S0 C6 ?! W1 p* h
Frame rate                               : 31.250 FPS (1536 SPF)& u5 v# B+ p& U5 u+ M
Compression mode                         : Lossy
; w+ \% H% n+ r3 b4 iStream size                              : 305 MiB (4%). N8 p% c7 u, @1 m3 \6 I
Language                                 : English2 Z6 N1 k4 Y8 L* Z
Service kind                             : Complete Main$ C. Z+ z+ B7 ~: J( M
Default                                  : No
/ N3 [. _7 v" ], l0 kForced                                   : No
- w$ m, Q1 G0 S
6 e3 U8 [! l1 H! Q1 x% _0 M1 f
" S$ ?1 [) m5 }- n
Text #1
- m' A4 l( f5 ^+ PID                                       : 4
# T9 w  i/ [) Y  @' MFormat                                   : PGS
; Z/ E- `; d1 U- }7 uMuxing mode                              : zlib
& S0 n( W/ i/ PCodec ID                                 : S_HDMV/PGS* N/ M( Q/ m# A. Q% z
Codec ID/Info                            : Picture based subtitle format used on BDs/HD-DVDs$ e  c! ?# k; ~: z6 t$ ]
Duration                                 : 1 h 34 min3 T* i0 G' q4 p8 j4 A3 j7 i5 z0 [' `
Bit rate                                 : 41.5 kb/s  x9 }: f9 s) p& ]# x2 v3 K9 A
Count of elements                        : 3002; M: }/ p! t. d7 n
Stream size                              : 27.9 MiB (0%)
& D+ U8 m$ a1 c7 GLanguage                                 : English$ T! o* G& \( p" H) G$ n% L4 H
Default                                  : No
5 J3 j1 u2 D- w% m5 o- pForced                                   : No
7 W- q- N' V) p/ e
7 h9 f) Y9 o# C+ ^$ Y7 \) a/ I
& }7 w( G8 y8 b+ x; Z4 _
Text #2
0 p0 r5 N8 |. i: c  L& CID                                       : 5
# S/ z9 A, Q8 _7 @% BFormat                                   : PGS
6 R' p5 R' o$ @* h5 z1 HMuxing mode                              : zlib  f- Q% z, F, Q+ M- E
Codec ID                                 : S_HDMV/PGS
9 K( d; a4 h1 Z  J6 I9 p% D( lCodec ID/Info                            : Picture based subtitle format used on BDs/HD-DVDs
7 D1 l: \7 x+ b' ZDuration                                 : 1 h 34 min4 R6 X2 O# a% b/ X- R* K$ O
Bit rate                                 : 37.5 kb/s
, r2 ^8 W- `; y1 X6 {Count of elements                        : 3030, |+ |1 d; R6 x1 x+ y
Stream size                              : 25.3 MiB (0%)
% `) \. ?4 O& c! ]5 P; P# vLanguage                                 : French
# g' d- ]. r. H5 tDefault                                  : No
* p2 R9 f  {9 v4 wForced                                   : No8 a  F! x; l0 \. G

8 j# t9 ]# Z  [& F. F/ X
' h' i9 r+ f7 G4 T) ?$ T7 n
Text #3
7 a. ~0 G- J; f3 o% ?ID                                       : 6
4 D; y; w, Z  G* [' A7 mFormat                                   : PGS5 G( i8 H( e) y3 f) h
Muxing mode                              : zlib
5 ^) F2 H( t" O' RCodec ID                                 : S_HDMV/PGS; m4 m3 ^: M, m9 J+ [6 h3 f, {  ^
Codec ID/Info                            : Picture based subtitle format used on BDs/HD-DVDs
" i0 n6 Y) {' J3 jDuration                                 : 1 h 34 min
( `* k8 C# Y% N7 G7 i4 S0 eBit rate                                 : 38.3 kb/s
" f4 I- Q5 [0 r. uCount of elements                        : 30026 c) H8 K, ]0 }8 q7 y
Stream size                              : 25.8 MiB (0%)
) O  Z4 w6 w8 jLanguage                                 : Italian
# V& H& a" D% v+ x6 qDefault                                  : No* K- I  m+ C, ]/ P5 [: i
Forced                                   : No! }, \* O" B1 p0 t, H0 v$ }

# [, c8 a# ?# j) N( ]2 a

  k4 O% a5 f. Z5 jText #4
0 [" k1 m2 B0 EID                                       : 7) o. @( f+ U  Y9 K. U/ D9 n
Format                                   : PGS
$ q* `7 C) S+ [3 Y, BMuxing mode                              : zlib; v: k9 ?: R' n
Codec ID                                 : S_HDMV/PGS
4 U% F) r8 u% N/ ^! L) y  g$ SCodec ID/Info                            : Picture based subtitle format used on BDs/HD-DVDs; E6 T$ J$ E+ s: Y6 s
Duration                                 : 1 h 30 min9 i2 B, ?5 z0 Y( V: P: k4 L0 c  K, N
Bit rate                                 : 349 b/s1 f: m" T% B+ q2 A- x$ ]2 x
Count of elements                        : 328 i" ]4 ~7 s) l7 R/ ]3 Z2 R: J
Stream size                              : 231 KiB (0%)4 d; b& I7 X2 k* R1 q- d5 O$ N
Language                                 : Dutch2 Y" V8 e% l) M( H4 Q0 }: b! u2 x/ J
Default                                  : No) [% ^3 w8 s4 s: A' l9 L1 j
Forced                                   : No
+ h/ u% @- ^# ?* |( c
# {: y) }7 \- I3 P' L
0 X1 D3 w0 {  @  j9 Q3 x! J7 u$ N( ]
Text #54 _2 Z3 x/ C: Q# a, J7 c
ID                                       : 8& ^% u7 A0 f! T
Format                                   : PGS
0 [6 J. i; n# p& W% f5 aMuxing mode                              : zlib
  [* v9 k% P6 B6 m7 OCodec ID                                 : S_HDMV/PGS
; X) q5 T1 L; E3 }5 ~Codec ID/Info                            : Picture based subtitle format used on BDs/HD-DVDs
3 t4 p+ e9 U1 V5 ADuration                                 : 1 h 30 min1 w, W( j9 ]/ L
Bit rate                                 : 439 b/s+ k+ n  H' p" A" E, ^7 |
Count of elements                        : 34& b  M* _/ R% i, v- S9 t
Stream size                              : 291 KiB (0%)
5 d+ x& t5 L) n" V+ O, eLanguage                                 : Portuguese
0 ?0 P( \0 C2 ?- T# W1 BDefault                                  : No
# q! o0 I! w# L! xForced                                   : No+ T: w- R  D7 I
; F' b3 S; o7 Y% ]2 n

  a8 i7 ~( v4 P6 H9 @Text #6* J' t. A  h, a& d$ K- W
ID                                       : 9! E8 b3 ^9 C4 y
Format                                   : PGS
/ z7 V9 e$ u4 j. A5 |' ZMuxing mode                              : zlib% X* _% k5 w# q& C
Codec ID                                 : S_HDMV/PGS
# F4 @) }) U, y6 b: e, M3 gCodec ID/Info                            : Picture based subtitle format used on BDs/HD-DVDs! ~6 `' K1 y; ^) z# x
Duration                                 : 1 h 30 min3 T$ k8 p5 G# B; v
Bit rate                                 : 568 b/s$ ?: ^3 G' X$ ^! Y9 I
Count of elements                        : 52* H3 x' X$ d) h. @
Stream size                              : 376 KiB (0%)
8 F, c: r- v) \3 \/ hLanguage                                 : Russian
+ c- r* ]  j0 p: c7 I' HDefault                                  : No, z# X, n4 R" j' F, k
Forced                                   : No6 ~! v$ v$ @- E+ \, D# `
' g9 P8 u: o0 M6 n" _
* M- n/ h( p% m+ S
Text #7
$ B) [/ C$ E& Y3 i$ KID                                       : 101 A0 a+ i) E5 T/ `" {: R: z
Format                                   : PGS
/ O: a! c9 ?: K9 dMuxing mode                              : zlib) y2 C3 {+ e# M4 i8 ]; J
Codec ID                                 : S_HDMV/PGS; Y0 B3 D/ b' k6 g: {
Codec ID/Info                            : Picture based subtitle format used on BDs/HD-DVDs/ O9 s- Y+ l4 e& Z
Duration                                 : 1 h 30 min
3 s+ ~0 O3 _7 v0 V+ s; S$ gBit rate                                 : 373 b/s
5 Z# K* o* _! qCount of elements                        : 32
* x, a  l* m9 b, s% tStream size                              : 247 KiB (0%)2 _5 ~3 L% i* w4 e0 _8 W9 i2 W
Language                                 : Czech/ u3 q2 l4 O$ n" o! Z/ Z* X9 y: ?
Default                                  : No" J% j7 X# a  c; Q* z  v
Forced                                   : No" x" x9 |* L% ~5 H
$ A  R9 M% H5 n8 h' v7 |6 N; ?4 x- P
. R2 m9 _7 l/ ]
Menu
& D+ c0 F' |: z00:00:00.000                             : en:Chapter 01
, e1 }& I# C! W( q6 C" L00:06:36.563                             : en:Chapter 02
8 |- z* C" V6 v. h: f0 P! Y00:11:17.760                             : en:Chapter 03( }  s$ \4 G( |& l  K$ g
00:18:01.289                             : en:Chapter 04
4 u1 k$ }6 S; r( ^2 ?00:21:05.389                             : en:Chapter 05
! U, o. @1 }7 H9 Q; ~5 g00:25:45.085                             : en:Chapter 06
! \6 M$ [! F, |+ L* C+ m1 L  Q* [4 E* c' A00:29:01.990                             : en:Chapter 07
8 o" o) E1 d3 o, v0 x0 U1 H00:34:01.706                             : en:Chapter 08
3 O" C# A- }/ d. U' d% n- V% [00:37:10.603                             : en:Chapter 093 U; Y. c: v$ J3 h: g
00:43:43.037                             : en:Chapter 10
: u4 ]/ X2 y( A, q/ x; O' K+ j00:48:33.786                             : en:Chapter 114 a" H7 _3 |! z3 n+ c& g
00:52:16.675                             : en:Chapter 12
* v, C' E2 ?+ T3 F; e00:55:48.095                             : en:Chapter 135 S% E2 @! R( [; J
00:59:50.128                             : en:Chapter 144 V, ^6 j/ D0 P3 D8 W
01:05:28.758                             : en:Chapter 15
) Q4 e# v: w5 r6 d# L/ |9 I01:09:06.476                             : en:Chapter 16
/ `  A+ k5 {( o  R01:15:03.499                             : en:Chapter 17# L1 Y3 }2 R' e
01:21:30.719                             : en:Chapter 18, h6 ]- ^" I9 n2 a2 m6 n5 ?
01:25:12.691                             : en:Chapter 19
5 Z! c3 d$ `" D5 U( t01:27:39.129                             : en:Chapter 20

7 o# k: w! V3 g& N! D9 _  f* p+ X

6 c# }0 S6 a9 L8 y1 Q; m* u9 U: k
影片截图/ b$ \% e8 k4 r& ], W7 v- q: ^
e348dc24710e350dfaa9ffacb84e4b20.jpeg
& `) u: H+ G- G% N  |0 Q6 K- X4 ~) j6 a: [& o
% \7 ?5 ?  v3 B4 b1 `3 |, c
蓝光高清网提示您 点击下方附件名称 即可开始下载7 m1 z( {2 j; D" D9 x6 H, J
# ?2 G7 _+ G8 G$ y" H; }

( j2 w( p+ l  ]疯狂原始人2/古鲁家族:新石代 The.Croods.A.New.Age.2020.3D.1080p.BluRay.x264-PussyFoot 7.85GB& C5 v3 ~9 d8 h6 F9 J

The.Croods.A.New.Age.2020.3D.1080p.BluRay.x264-PussyFoot.torrent ( 20.49 KB )


+ ~- k- P' x9 x' R  f+ p
- _0 o. G/ K2 O; C# G9 Y. X7 E
1 c3 x* g; b1 D* S
回复

使用道具 举报

全部回复14 显示全部楼层
naive手机认证 发表于 2021-12-8 14:31:41 | 显示全部楼层
谢谢分享
回复

使用道具 举报

lanxiaoqi 发表于 2021-12-29 18:24:23 | 显示全部楼层
感兴趣否认她的; X8 C/ f9 K# |) t# N: J
回复 支持 反对

使用道具 举报

wonloo手机认证 发表于 2022-1-5 09:20:01 | 显示全部楼层
感谢分享...................
回复

使用道具 举报

occar0手机认证 发表于 2022-1-5 17:00:48 | 显示全部楼层
1111111111111
. O9 F5 p! y" F  j. s0 o3 Z感谢分享...................
回复 支持 反对

使用道具 举报

cjw4 发表于 2022-1-10 09:25:29 | 显示全部楼层
感谢分享...................
: Y  [9 s, u; @( `% ?4 p# Z
回复

使用道具 举报

明天阿 发表于 2022-1-11 16:50:15 | 显示全部楼层
棒棒棒棒棒昂# D7 N' F; x$ `( H( _
回复 支持 反对

使用道具 举报

nqwl123手机认证 发表于 2022-1-21 22:37:46 来自手机 | 显示全部楼层
谢谢分享!
回复

使用道具 举报

zgs123456手机认证 发表于 2022-1-25 12:55:33 | 显示全部楼层
谢谢分享
3 V; V, w( J: S9 u' m& z
回复

使用道具 举报

fsl432 发表于 2022-3-16 22:23:59 来自手机 | 显示全部楼层
感谢分享!
回复

使用道具 举报

发表回复

您需要登录后才可以回帖 登录 | 立即注册

本版积分规则

开通会员 帮助中心 返回顶部 返回列表