蓝光高清网

搜索
开启左侧

疯狂原始人2/古鲁家族:新石代 The.Croods.A.New.Age.2020.3D.1080p.BluRay.x264-PussyFoot 7.85GB

 
4k演示 发表于 2021-12-7 11:44:39 | 显示全部楼层 |阅读模式
疯狂原始人2 豆瓣评分: 7.7分
片长: 95分钟 ( 2020年上映)
类型:喜剧 动画 冒险 
导演:乔尔·克劳福德
主演:尼古拉斯·凯奇 / 艾玛·斯通 / 瑞安·雷诺兹 / 凯瑟琳·基纳 / 莱斯利·曼恩
3 D 格式:sbs 

封装音轨:Dolby TrueHD 7.1 Dolby Atmos 
简  介4 ]! s; k! P6 V
* o1 V2 g& u: w/ M" D- M
  经历了逃离洞穴、挺过末日危机之后的原始人咕噜家族,咕噜一家决定寻找新家园。中途盖(瑞恩·雷诺兹 Ryan Reynolds 配音)已成了咕噜一家中的一员,但让瓜哥(尼古拉斯·凯奇 Nicolas Cage 配音)头疼的是,盖跟女儿小伊(艾玛·斯通 Emma Stone 配音)每天你侬我侬,还妄想组成只属于两人的小家庭。就在咕噜一家人饥肠辘辘之际,他们发现了一片高墙内隐藏着食物丰饶的沃土,原来开辟这片世外桃源的文明人夫妇霍普和菲尔是已经去世的盖的父母的朋友。在最初的热情款待后,一心想要撮合盖和女儿晓晓的霍普和菲尔,发现咕噜一家成了绊脚石,为了把盖抢过来,他们用上了攻心计。两家人闹得不可开交,盖和小伊也产生了裂痕,却浑然不知危险正慢慢靠近……* v- ]: |  p3 \$ g
' |# H2 l. A8 ]+ C2 ?
2 h' m  n1 ^1 q- l6 M1 F+ A% S

+ e/ ^5 c4 Y# A: \) q. J1 q0 |+ o) @获奖情况
$ C! A! U" z* r( o  第78届金球奖 ?(2021)
6 W  {! K0 v; B4 E  电影类最佳动画长片(提名)+ m/ R3 A* F$ {1 t5 [
  
3 k3 l0 `( m  J9 k# Q$ g. r) x  第48届动画安妮奖 ?(2021)
1 I9 N0 {1 J$ u! B9 Z; e) K  x  最佳动画长片(提名)4 {% r7 i& C6 U  A
  最佳分镜(提名)
# u1 k, Y8 p3 X0 B  O/ V: c) S  最佳动画角色(提名)# T4 m$ q, E) ^' J! C8 c
  最佳角色设计(提名)& g- ]+ n9 H9 @
  最佳动画效果(提名)
# w% K# Y$ d" ^0 z* K; d  
& E3 e2 x8 S5 F  p) Q9 L  第32届美国制片人工会奖 ?(2021)
" W% I$ P1 ~& N& \# d" o  最佳动画片制片人奖(提名)
) H0 R7 |6 r4 V0 s$ P  
* g/ _/ Z; m* Z1 Z/ `4 P/ P% W4 d  第71届美国剪辑工会奖 ?(2021)
; o! e& t* G+ a  f' k9 m  动画片最佳剪辑(提名)
& L( j% k* o& U& Z0 _+ C* L  ! ]. [* l3 }, y) C! N
  第25届美国艺术指导工会奖 ?(2021)! O1 G4 ]+ d* a8 m/ S
  电影奖最佳动画电影艺术指导(提名) 内特·伍拉格5 \! O$ {( O. ^+ y1 e: ^
  0 ]- \. F- p( z2 Z7 R) |' {% {  j8 ?' c
  第68届美国音效剪辑协会奖 ?(2021)) a9 h) Y" V; y
  金卷轴奖最佳动画片音效剪辑(提名)
: r; t! r: Z1 R# ~  
4 \) _5 z( P  c4 `. m  第19届美国视觉效果协会奖 ?(2021)" o& Q  f) j6 ^
  最佳动画电影视觉效果(提名)
4 @" l  r. g# x' k6 ]( l5 s; w  
  o% Q  w! Q& j$ [1 Z! o  第57届美国声音效果协会奖 ?(2021)6 H2 e) B( g* Y, m$ `
  动画电影最佳音效(提名): T8 R0 [8 H3 Y8 v, Z3 a* d7 O
  # z9 q' ~+ l6 w1 p
  第7届豆瓣电影年度榜单 ?(2020)# M& K5 b: ^- a0 ^9 E
  评分最高的外语电影(提名)- g, v' X* O% o! ]7 }; f
  评分最高的动画片

8 G# h% z  g9 z' c! d0 _
: t$ l1 U" {/ b6 g% Y: C' H
影片参数
0 `9 M9 q( H6 O! r  H/ Z) S
Video
5 o2 B1 M( z1 Q3 @( v/ SID                                       : 1. |# z0 z1 P9 P" Z4 ~
Format                                   : AVC
; |5 f: ]* ?8 V. W. j, w1 EFormat/Info                              : Advanced Video Codec  \! y7 B0 C$ ?! C' t' T
Format profile                           : [email protected]
* J6 O% E1 G6 e  wFormat settings                          : CABAC / 5 Ref Frames: L  w; ^' f. p" X& r
Format settings, CABAC                   : Yes
7 r+ h9 F, j( K/ s. Z3 KFormat settings, Reference frames        : 5 frames
/ w" v0 k  [/ eCodec ID                                 : V_MPEG4/ISO/AVC2 ?5 m5 V2 H' V3 i; M, }! D: x+ `% ]
Duration                                 : 1 h 35 min
) N6 n2 _5 [4 g; a9 JBit rate                                 : 8 132 kb/s# R( V5 N( L+ Y! R! g! B! j/ S
Width                                    : 1 920 pixels/ X1 X8 z3 v# i  e6 T0 _' f, I
Height                                   : 816 pixels
+ S9 f; G& }8 F/ FDisplay aspect ratio                     : 2.35:1
9 p0 ?  d: {7 NFrame rate mode                          : Constant
! g. S! v' x! _8 c  _Frame rate                               : 23.976 FPS) y. \6 I# i7 D, F8 X
Color space                              : YUV
+ |& }( h# \: Y  K& ?8 N7 `Chroma subsampling                       : 4:2:03 O+ d  K% m, ], K9 q. [0 A
Bit depth                                : 8 bits+ l) ^0 }+ h+ O1 R$ _" v4 Q2 a
Scan type                                : Progressive
; Y! ^1 f0 M0 ?3 U7 A+ u6 r% kBits/(Pixel*Frame)                       : 0.216
9 {9 r+ }2 ~" Q, E1 ^/ V  [4 vStream size                              : 5.41 GiB (69%)
2 d: `! Y+ s& M! c7 }Writing library                          : x264 core 164 r3075 66a5bc14 C7 r( R1 ~6 Y7 L$ M
Encoding settings                        : cabac=1 / ref=5 / deblock=1:-3:-3 / analyse=0x3:0x133 / me=umh / subme=8 / psy=1 / psy_rd=1.00:0.00 / mixed_ref=1 / me_range=16 / chroma_me=1 / trellis=2 / 8x8dct=1 / cqm=0 / deadzone=21,11 / fast_pskip=0 / chroma_qp_offset=-2 / threads=24 / lookahead_threads=4 / sliced_threads=0 / nr=0 / decimate=1 / interlaced=0 / bluray_compat=0 / constrained_intra=0 / bframes=3 / b_pyramid=2 / b_adapt=1 / b_bias=0 / direct=3 / weightb=1 / open_gop=0 / weightp=2 / keyint=250 / keyint_min=23 / scenecut=40 / intra_refresh=0 / rc_lookahead=50 / rc=crf / mbtree=1 / crf=17.0 / qcomp=0.60 / qpmin=0 / qpmax=69 / qpstep=4 / ip_ratio=1.40 / aq=1:1.006 {; R7 J, f0 g
Language                                 : English, T+ A: ]/ o0 N" ?( c5 p3 M
Default                                  : Yes; T7 p3 }0 j2 @+ c$ F
Forced                                   : No
) S: a" Q4 F) Z" O2 G& h3 p$ W2 v5 K2 r% ]7 G  @9 ]
# j, q# M* m/ i5 e! b0 b
Audio #1
( a* b* |: }9 C9 ~: e4 FID                                       : 2/ X* \  |' {4 k& f+ `. N* X( P
Format                                   : MLP FBA 16-ch; r1 @: q. H, ~$ G- E
Format/Info                              : Meridian Lossless Packing FBA with 16-channel presentation/ B/ q' r2 x" _8 A9 R3 O
Commercial name                          : Dolby TrueHD with Dolby Atmos+ u2 @  r' U2 n7 X. H8 Z
Codec ID                                 : A_TRUEHD* u" c( ?% N8 M# ]. v; N/ A; n; {
Duration                                 : 1 h 35 min% x* s- N* l/ x( y5 `& [
Bit rate mode                            : Variable1 `$ v% c: o. R6 d# b4 z  R
Bit rate                                 : 3 095 kb/s# E9 g; \4 e8 V5 ]' Z! e& i' F
Maximum bit rate                         : 4 263 kb/s
% V" p+ d; V* v8 M- X. ^" nChannel(s)                               : 8 channels
; O# ?) p( E- J5 OChannel layout                           : L R C LFE Ls Rs Lb Rb
/ a! G3 d- B/ o: B2 SSampling rate                            : 48.0 kHz- w0 M1 a6 I6 G0 D; A; q
Frame rate                               : 1 200.000 FPS (40 SPF)
% _  D; z7 P4 U) d# W1 U7 s+ ?& NCompression mode                         : Lossless
& P2 M+ u2 Q1 G1 J4 VStream size                              : 2.06 GiB (26%)* W8 a% O  B' j) B/ Y# R
Language                                 : English" @  z' p0 l, |  b, h$ ^( q9 d! G
Default                                  : Yes9 B6 [7 \8 _7 K; @
Forced                                   : No
' E$ [9 g1 j& k7 W0 JNumber of dynamic objects                : 114 B, s. a( l0 U. G: b
Bed channel count                        : 1 channel
& l& i2 C# g8 z  Z' oBed channel configuration                : LFE
6 k+ u7 [9 I. m3 K) w& ~
* _9 }1 F3 l/ z" K- i

1 {. p4 x# s, |# L; Y) H/ [, k7 y4 \Audio #27 N6 I- }3 i" e- |' d  k
ID                                       : 3
# k4 T" `4 y- C* q0 Z6 J6 JFormat                                   : AC-3
5 n9 Z& X( M) R  l* w, c! DFormat/Info                              : Audio Coding 33 O4 V/ d$ `9 T, A! S
Commercial name                          : Dolby Digital
2 w9 h' z' s: e% Z% N. hCodec ID                                 : A_AC3# K4 c8 c  f4 O5 E. m0 ?
Duration                                 : 1 h 35 min, C4 E: M: s# O) O: {+ {
Bit rate mode                            : Constant* q, z5 b2 r% a: Q9 n& r
Bit rate                                 : 448 kb/s5 o3 \, @3 l" R8 N: @
Channel(s)                               : 6 channels
+ I# r' K2 `6 j' ?; Q4 f- R/ J5 WChannel layout                           : L R C LFE Ls Rs/ j8 p. l( i8 F8 S" M( Y
Sampling rate                            : 48.0 kHz
  ?5 t& R1 O, k$ l; Q7 ?- H% lFrame rate                               : 31.250 FPS (1536 SPF)4 `4 ^1 w+ {5 q# O: \. N* A( [
Compression mode                         : Lossy( p' @* r, E8 ~  L
Stream size                              : 305 MiB (4%)
' O; x& c# s8 i! A, U) E: Q* cLanguage                                 : English
6 E$ o" M! i- Q4 Y0 [Service kind                             : Complete Main
" E5 Y7 d8 h& m  {  b, nDefault                                  : No
  g0 Y5 e1 M( t- s9 PForced                                   : No- m7 M# t; ?6 E- j

' t2 k: `( p5 x) B8 _

/ B: s! b4 w0 p( h# y' ~Text #1
* o1 c1 R; M6 n7 ]1 o) P3 M2 }ID                                       : 48 l1 i4 Q0 ]; [' b7 `9 l
Format                                   : PGS
8 d3 `3 i8 z' I' D3 J, g# oMuxing mode                              : zlib
0 A& e( @4 D/ g. N+ g7 I4 ?& o5 eCodec ID                                 : S_HDMV/PGS
9 y+ S6 h, a; }) F9 h7 oCodec ID/Info                            : Picture based subtitle format used on BDs/HD-DVDs
* i5 }$ T" k# ?6 i0 x- @3 M6 n9 k, aDuration                                 : 1 h 34 min
0 J- T+ K: c: u7 YBit rate                                 : 41.5 kb/s! k$ `8 f2 Y4 e; o# U1 M
Count of elements                        : 3002& r' r" }: q) d4 H0 F
Stream size                              : 27.9 MiB (0%)
: Z* @+ i2 Z( C9 ~$ o3 rLanguage                                 : English
5 E# r: D; S8 LDefault                                  : No* u, B/ j& u3 I1 T! j5 w
Forced                                   : No/ |( j8 M1 H- M) Q" b

  {2 @1 G1 b/ }8 }& o6 R: O! U

$ I, l# S& e  \# z- R7 ^& U  c8 iText #2/ S& i8 @8 n+ M8 Z: r! f
ID                                       : 5
! I& w) Q- e* u  GFormat                                   : PGS5 v- X& E7 [) r% n4 H/ L- k
Muxing mode                              : zlib
6 K: H0 _. A+ J* iCodec ID                                 : S_HDMV/PGS
+ i$ [" V( o2 r( o4 z4 R% f5 I5 oCodec ID/Info                            : Picture based subtitle format used on BDs/HD-DVDs
! Q" ~2 |7 M: W! D8 ODuration                                 : 1 h 34 min
( u" f+ p8 Q/ X6 L. ABit rate                                 : 37.5 kb/s* u4 p" j, X8 u; A5 Z2 _
Count of elements                        : 3030, ~# e$ p( V/ z# i
Stream size                              : 25.3 MiB (0%)
* p9 R/ r2 ~) x, a, cLanguage                                 : French+ P9 k* w- J/ ~. \; K$ D
Default                                  : No9 b$ ?' Y! S" o( l6 g
Forced                                   : No) R$ U9 Q# S+ _9 ]! ^5 ?* j
! L/ q+ _: a/ ]) B4 v" ~
8 c, d, d3 i. H! C0 n: z3 ~: ?
Text #3: E' \0 w5 a$ O
ID                                       : 6+ r" c  V$ {' O! s3 V' i) h! d
Format                                   : PGS
( M, {0 |7 A( s8 {" QMuxing mode                              : zlib% w+ m' _1 ^0 ]: |  _3 ?- b
Codec ID                                 : S_HDMV/PGS! {8 l  @( B2 V: o2 Y
Codec ID/Info                            : Picture based subtitle format used on BDs/HD-DVDs) L6 f. |8 D6 ^$ k
Duration                                 : 1 h 34 min
, J9 v( o; \0 }* o7 A- @Bit rate                                 : 38.3 kb/s; C1 I2 [* W: {- W: ?) c1 n0 P+ C
Count of elements                        : 30028 ]& R( W/ F8 X; [7 I1 Y) a) y
Stream size                              : 25.8 MiB (0%), ^( @& q  \( ^( c3 |+ _
Language                                 : Italian
- j$ z, A: h1 t* Y+ U! T( k3 LDefault                                  : No
/ \+ S0 ?4 O9 o" I* jForced                                   : No5 Q5 z/ E$ L( g  x* U3 S  A

# G3 F% u9 \- N8 H/ d  F, X; q

( D3 Y' t& ?( ?! k2 SText #4
, m9 W* a1 H& j8 v) w5 jID                                       : 7' v0 A6 ~' Q( v4 K* h* _
Format                                   : PGS
( J& Z7 F/ j0 d; z- rMuxing mode                              : zlib
( n4 ^4 A( S! G* q) QCodec ID                                 : S_HDMV/PGS
9 G+ v3 i. }# [& K9 BCodec ID/Info                            : Picture based subtitle format used on BDs/HD-DVDs1 q3 v% K. {& T  F
Duration                                 : 1 h 30 min, [4 m+ y4 W4 S- p5 U* P! C
Bit rate                                 : 349 b/s/ n% t/ C1 B# C+ Y" l1 D9 ?: ?! O
Count of elements                        : 32
3 P* R& `+ R, L' h5 n& C/ `4 lStream size                              : 231 KiB (0%)
1 U! Q0 {- w; [- w+ eLanguage                                 : Dutch+ c' k0 A& ^3 y0 k
Default                                  : No5 R$ C: g0 D. `/ J) t
Forced                                   : No
+ m5 ~- l! H4 H0 L! P+ v+ Y& j9 P* ?  q( V' p" E
0 y; j- l8 ~7 v+ f$ o4 J* N
Text #5+ Z+ q" m5 x  I" r. W( Y
ID                                       : 8% @7 d+ X' s7 J3 K7 V
Format                                   : PGS
% n0 P- S% k$ gMuxing mode                              : zlib- Q4 w6 @: H1 f7 V7 `
Codec ID                                 : S_HDMV/PGS
" z: e$ }. d) d- @8 r: `* n2 UCodec ID/Info                            : Picture based subtitle format used on BDs/HD-DVDs
  w: r$ A- Y- k# E: X5 TDuration                                 : 1 h 30 min5 ]( y  X# B0 d2 _
Bit rate                                 : 439 b/s! d1 D& @) A6 ^
Count of elements                        : 346 S4 P; R2 W* z+ P/ R2 z# n" d8 U
Stream size                              : 291 KiB (0%)5 f: B" e5 t, Y4 R
Language                                 : Portuguese0 O+ j* v+ c8 W' }; J
Default                                  : No  u% |( q: u! L) Z1 v: _% J
Forced                                   : No
. w9 A: P. G7 K4 f
+ C+ f# W# h: ?* b9 x8 Y
& Z6 ]+ v% f% o7 _  r
Text #6
  o4 `6 v; ?6 d" ]ID                                       : 9
. ~8 h1 x1 s9 {  R" LFormat                                   : PGS
) z* b; R" {/ `- `$ k( E1 HMuxing mode                              : zlib, M* H1 m' A* @$ J* B- J0 Z. e
Codec ID                                 : S_HDMV/PGS" x, W2 g6 Q  W9 |+ I% \
Codec ID/Info                            : Picture based subtitle format used on BDs/HD-DVDs
7 {1 N! D& ?( H& ]/ E5 ^Duration                                 : 1 h 30 min7 K% w+ {( }% F* m6 ?: t' M4 g, E7 P5 s
Bit rate                                 : 568 b/s0 q* I7 o& H# K: \
Count of elements                        : 52
" B  t% i3 d% M" y" j9 WStream size                              : 376 KiB (0%)) [' o2 ]& U1 e  l
Language                                 : Russian
; j& r3 N1 {- S% x, B- p) S, cDefault                                  : No
& f- T+ Z  S- u+ ]7 yForced                                   : No* p/ Y$ @* ]3 L- @6 }& `
( L! |; w% P9 u; K' V. R
" u4 Y( W# v: d  K& E/ q  P
Text #7
- w( ?0 {& K1 Y3 R: bID                                       : 10
: s' v- r' b2 V! F3 dFormat                                   : PGS
$ {. ?4 ~1 f) c7 ~3 |( T, k& mMuxing mode                              : zlib/ k: e( L" e  G4 P4 @
Codec ID                                 : S_HDMV/PGS1 t3 L" J; D1 Z' \( O. F
Codec ID/Info                            : Picture based subtitle format used on BDs/HD-DVDs
' @2 M, L' n& NDuration                                 : 1 h 30 min
' k. E) L) l1 X5 Z: c" x9 b( ?Bit rate                                 : 373 b/s9 P+ i1 m  r# }/ g+ p2 N/ D; U+ f
Count of elements                        : 32
+ B' o. G5 W3 V7 V4 S: SStream size                              : 247 KiB (0%)  e8 H; J9 _- t( h! [1 w! W
Language                                 : Czech
( ]5 Z/ h& G) y/ B1 Z% N8 wDefault                                  : No' d" d, W, v/ S- ]
Forced                                   : No
% v) i$ P6 P% a$ P2 _- k+ Y
3 R$ l% G! O/ y8 Q) Z6 {
, a# L& p/ w9 O
Menu
. Q% Z, }  y; k+ e& O00:00:00.000                             : en:Chapter 010 j1 A& V0 y5 c- P* @$ [! S! ^' o
00:06:36.563                             : en:Chapter 028 x- _: C* y0 F9 B: v
00:11:17.760                             : en:Chapter 03
3 `6 _+ p/ j. d" `; i) t00:18:01.289                             : en:Chapter 04
2 s5 U7 T; f8 t+ ?00:21:05.389                             : en:Chapter 05
2 q+ P7 v# f$ U$ _( z( p1 |00:25:45.085                             : en:Chapter 065 Z" `) L+ _4 Y- \0 n
00:29:01.990                             : en:Chapter 07
/ |& Y) n% j4 G* H* v: g00:34:01.706                             : en:Chapter 08% L( ^( u' K0 V# C) d
00:37:10.603                             : en:Chapter 094 d( W" `& i* C
00:43:43.037                             : en:Chapter 10
) I$ E& y( W4 m& l8 _) [00:48:33.786                             : en:Chapter 11
: N. Y: S6 R  x9 B& l0 @00:52:16.675                             : en:Chapter 12
9 s- }3 y6 K+ `00:55:48.095                             : en:Chapter 13
" `- T. R: J0 O00:59:50.128                             : en:Chapter 14/ v# c) @. z1 \& T3 y6 |2 s
01:05:28.758                             : en:Chapter 150 f. s) x& W6 }3 f* u  ~% n
01:09:06.476                             : en:Chapter 16) {' s  a0 ]2 o& K
01:15:03.499                             : en:Chapter 17; Q- p  G! m: c* m4 @$ H4 K" {2 e
01:21:30.719                             : en:Chapter 18+ h8 L9 f- B6 n+ q1 ~( o
01:25:12.691                             : en:Chapter 19' s& p7 r; Y  d- V) d
01:27:39.129                             : en:Chapter 20

! ~' P+ J' x7 A0 \
4 f- Q! ?+ k3 y7 Y& h
0 i& D, P8 l/ l: k0 V
影片截图
. G2 m" u5 J1 m. ~* L! r0 V e348dc24710e350dfaa9ffacb84e4b20.jpeg & Z4 R9 R* u: i

- w. m$ X2 i& ~6 X8 S
) u2 ^" _; m2 m# `  [
蓝光高清网提示您 点击下方附件名称 即可开始下载
2 _3 b  m& T& ~9 c9 s5 f) D$ [" F# s
( _9 _2 u% l5 \
# q# q8 h* V1 Z, m
疯狂原始人2/古鲁家族:新石代 The.Croods.A.New.Age.2020.3D.1080p.BluRay.x264-PussyFoot 7.85GB
8 O% o, ]+ R+ H0 S

The.Croods.A.New.Age.2020.3D.1080p.BluRay.x264-PussyFoot.torrent ( 20.49 KB )

) F4 T( ~: \* [8 b
. Z- X; v8 x9 p. \9 i5 V1 z; I/ }; P+ Y
3 ], t( v& @/ f
回复

使用道具 举报

全部回复13 显示全部楼层
naive手机认证 发表于 2021-12-8 14:31:41 | 显示全部楼层
谢谢分享
回复

使用道具 举报

lanxiaoqi 发表于 2021-12-29 18:24:23 | 显示全部楼层
感兴趣否认她的
7 E5 @( ?8 L' ?; `
回复 支持 反对

使用道具 举报

wonloo手机认证 发表于 2022-1-5 09:20:01 | 显示全部楼层
感谢分享...................
回复

使用道具 举报

occar0手机认证 发表于 2022-1-5 17:00:48 | 显示全部楼层
1111111111111# S6 |- a! @4 D' k. @3 n8 r6 V
感谢分享...................
回复 支持 反对

使用道具 举报

cjw4 发表于 2022-1-10 09:25:29 | 显示全部楼层
感谢分享...................
0 ^' r9 W( A- `2 x2 ^1 ]2 M
回复

使用道具 举报

明天阿 发表于 2022-1-11 16:50:15 | 显示全部楼层
棒棒棒棒棒昂
0 @: u  H' z  w) f) ]6 A
回复 支持 反对

使用道具 举报

nqwl123手机认证 发表于 2022-1-21 22:37:46 来自手机 | 显示全部楼层
谢谢分享!
回复

使用道具 举报

zgs123456手机认证 发表于 2022-1-25 12:55:33 | 显示全部楼层
谢谢分享( W  q9 D  Z! i  W! Q8 \+ t( _
回复

使用道具 举报

fsl432 发表于 2022-3-16 22:23:59 来自手机 | 显示全部楼层
感谢分享!
回复

使用道具 举报

发表回复

您需要登录后才可以回帖 登录 | 立即注册

本版积分规则

联系客服 关注微信 下载APP 返回顶部 返回列表