蓝光高清网

搜索
开启左侧

爱情是狗娘 4k.Amores.Perros.2000.SPANISH.2160p.WEB-DL.x265.10bit.HDR.DTS-HD.MA.5.1-4K电影下载—30.95 GB

蓝鸟 发表于 2022-1-25 21:17:57 | 显示全部楼层 |阅读模式
爱情是狗娘 豆瓣评分: 8.2分
上映时间:2000年
类型:剧情 惊悚 
地区:其他 
导演:亚历杭德罗·冈萨雷斯·伊纳里图
主演:盖尔·加西亚·贝纳尔 / Emilio Echevarría / Álvaro Guerrero / 巴内萨·宝切 / 豪尔赫·萨利纳斯
画质标准:4K HDR  封装音轨:DTS-HD.MA 5.1 
简       介
( C9 v- l1 @3 b$ }4 V+ g8 Z* R* \
: T: f" d4 u+ Y" d* u9 V# T  三个与狗有关的故事,三段令人唏嘘的人生。  L1 D9 E$ g  y4 K
  奥克塔瓦(Gael Garcia Bernal 饰)和母亲、兄嫂住在一起,哥哥阿米罗(Marco Perez 饰)和女人鬼混,白天在超市上班,晚上抢劫超市,对妻子苏珊娜(Vanessa Bauche 饰)和小孩十分粗暴,奥克塔瓦慢慢爱上了苏珊娜,为了和苏珊娜私奔,他带自己的狗“高飞”参加地下斗狗比赛,赢了不少钱。谁知,快到约定私奔的日子,阿米罗和苏珊娜带着小孩离开了,还带走了他辛苦攒下的钱,气急败坏的奥克塔瓦约老对手做最后一场比赛,对方输红了眼,开枪打伤“高飞”,奥克塔瓦刺伤对手,开车逃亡,发生车祸。他和家人的生活,就此转折。4 o" `% S. f8 N) Y; v3 \" }# H2 G
  和奥克塔瓦撞车的是名模瓦雷里亚(Goya Toledo 饰),她的情人丹尼尔(Alvaro Guerrero 饰)刚刚离开妻子,二人开始同居。车祸使她的职业生涯受到了很大的影响,相依为命的宠物狗“米奇”掉到地板下,更是严重打击了她的精神,生活陷入困境。! x$ C6 {4 ]: I0 _" I
  车祸现场,流浪汉玛汀捡走了“高飞”,玛汀早年为了追求理想,抛妻弃女参加游击队,出狱后成为职业杀手,但是仍然心怀平凡父亲的梦想,希望得到女儿的原谅,机缘巧合之下,他和女儿有了见面的机会,他却无法面对。
( O: B5 e7 y& E: ^7 J6 k

- _0 G) N: K4 w; I6 V8 g% |

5 j8 y: ~, J" S8 E1 i# @影片参数
! p8 C2 ^' g+ a- q
狗男女的爱(港) / 爱是一条狗(台) / 人、爱、狗 / 爱情是母狗 / Love's a Bitch/爱情是狗娘4k.Amores.Perros.2000.SPANISH.2160p.WEB-DL.x265.10bit.HDR.DTS-HD.MA.5.1-4k电影信息, V! m1 r- M/ Y9 x# R1 u
Video
- |* o% I! M% J" u8 LID : 1
" R) S$ ]  C! C: {. ^# G. GFormat : HEVC: r& G5 L# @3 D( i
Format/Info : High Efficiency Video Coding- y* L# O  K3 n$ t. [
Format profile : Main 10@L5@High2 U8 ?* R# C& P, Y3 e: w% v: }0 L
HDR format : SMPTE ST 2086, HDR10 compatible5 m  A/ j& Z0 [% u- Y3 O; \9 Z
Codec ID : V_MPEGH/ISO/HEVC
* R; N+ w5 g* mDuration : 2 h 34 min& T1 |9 H- ]) T0 v0 U6 G
Bit rate : 24.7 Mb/s$ Q% g; ]4 _9 l% g
Width : 3 832 pixels5 F9 @1 q: p( j/ n6 J
Height : 2 068 pixels
) m1 |  S, b+ k4 TDisplay aspect ratio : 1.85:1
$ w5 l* D: {4 D- {Frame rate mode : Constant2 C. w9 j8 F7 T6 G9 S% E, N* T
Frame rate : 23.976 FPS
5 ?) G8 C5 B1 @0 LColor space : YUV1 l2 K# _7 L. y+ Y2 O6 f1 \
Chroma subsampling : 4:2:0 (Type 2)
  B+ [+ J9 C! n1 F* SBit depth : 10 bits! \- a, m+ H8 N7 q+ X3 ~
Bits/(Pixel*Frame) : 0.130
( K& N; t& p4 e5 bStream size : 26.6 GiB (86%)
+ C/ N5 X" @. ^  G& N+ S: pDefault : Yes
$ I4 ?  w3 V  P6 JForced : No
+ e$ |. R0 f" m! r# ?1 tColor range : Limited- p8 _9 Z4 S' I( t+ P
Color primaries : BT.2020  @% f% W5 x* J$ T* p2 K9 t
Transfer characteristics : PQ
' q1 B  q. r, ?  i$ dMatrix coefficients : BT.2020 non-constant
( k  n; A" B6 k4 sMastering display color primaries : BT.2020, V! J. ?4 R, }  S; e
Mastering display luminance : min: 0.0050 cd/m2, max: 1000 cd/m2
8 N& m5 ?- ?. |Maximum Content Light Level : 1033 cd/m2& s$ v' N; `. ]) o6 S
Maximum Frame-Average Light Level : 272 cd/m2
3 G: S! H) r% m" l& h' S$ z
) N. H  r9 @& W& q" Z
8 k3 Y" T8 T. {! C6 \" X. Q
Audio #1
8 \; B. }6 M. R+ e  v* TID : 2; Q- P5 e- c) e9 o+ h( a) L
Format : DTS XLL
  ]& K! G! n  \: `2 WFormat/Info : Digital Theater Systems
- \% C! m( K' V: O6 D+ C* MCommercial name : DTS-HD Master Audio0 d& I0 Z1 I8 m: D( G; c
Codec ID : A_DTS
- I( O0 _6 X8 hDuration : 2 h 34 min
4 x( s/ W2 G" p: e7 i2 t5 BBit rate mode : Variable
) l4 ]7 D# m* iBit rate : 3 844 kb/s
  i. w. X4 X8 M9 a4 H- }6 X) OChannel(s) : 6 channels
8 j- [* i# ?$ hChannel layout : C L R Ls Rs LFE. v. l* R8 p2 t) L9 X" Y
Sampling rate : 48.0 kHz
! k4 R' I) f9 R% r9 d/ z: rFrame rate : 93.750 FPS (512 SPF)
3 N$ t2 ?9 [! F, J9 _2 [Bit depth : 24 bits
. U- t8 T( o& d) c- YCompression mode : Lossless
/ k, i7 J8 R/ M% \  f" K% \Delay relative to video : 2 ms6 l) S1 n# K7 _
Stream size : 4.14 GiB (13%)
; v$ W- ^5 h$ l! eLanguage : Spanish5 W4 e4 T/ w* M0 T6 K( t! s4 {
Default : Yes
1 P. Y2 l9 U# fForced : No
9 u/ o2 @) x2 v$ I$ l& R
  t4 {/ ?( S. {: i
$ _0 Y' Z6 l7 y+ H7 }5 F+ q# b
Audio #2* y1 ^: O( Y9 E2 G8 S/ ?; A  j
ID : 3
1 e1 n4 @# C9 s5 m! iFormat : AC-33 ^& `! c- f) h
Format/Info : Audio Coding 3
% d- f) `6 U# w' J. E$ E/ }Commercial name : Dolby Digital
$ Y& ~% f% x; w/ }( f- tCodec ID : A_AC3
$ W! [. C+ ~) z8 I9 m- tDuration : 2 h 34 min7 t, U6 D, D/ |  l. u
Bit rate mode : Constant6 [2 L% i' v( }* h
Bit rate : 192 kb/s3 Q' d3 o( Z: X# A" n  d
Channel(s) : 2 channels9 h7 n7 o  Z) P8 j  K  M; F$ ~; V' g
Channel layout : L R
% x& z7 S! A# M( O& U. {) _Sampling rate : 48.0 kHz" G; I4 ]( Q' ]* C  q8 m2 T1 }
Frame rate : 31.250 FPS (1536 SPF)
2 X( n$ A0 s7 Q9 ^5 l) `/ x7 h9 e! `Compression mode : Lossy
( v1 d) a/ f' }& C: |Delay relative to video : 2 ms: M! n3 [1 i2 G5 J8 u8 w
Stream size : 212 MiB (1%)2 t$ C+ W0 c2 V
Title : Commentary by director Alejandro González Iñárritu and writer Guillermo Arriaga4 G, @9 z  ]8 h1 L0 ?
Language : Spanish
* b( `, G* l6 D2 WService kind : Complete Main
! D! C  q. S# u2 `, EDefault : No
$ f& E# U5 B* r1 s! r7 }2 d0 |& p8 IForced : No# Y" V# H0 m: w1 z% ]: W1 y8 o- g
! R3 m2 ]( W3 g7 t7 D0 G

; L" x  L5 d1 v, p, X) ]Text #1- y9 m" d( e, {( }! R4 L
ID : 4
- Q) R* l/ h, v/ F4 V' bFormat : UTF-8
9 s9 Z# w; X. h1 H3 J' tCodec ID : S_TEXT/UTF8
+ Y/ a( P7 Y' h. C9 UCodec ID/Info : UTF-8 Plain Text
' K( [" M( p0 y; l, }Duration : 2 h 28 min6 T: J4 s/ V1 t5 A) ?* W) J
Bit rate : 27 b/s$ U9 K& J1 r: G. d8 U
Count of elements : 1347
5 e, r0 j1 Q% T5 H, sStream size : 29.8 KiB (0%)
5 Q. i- e6 F- XTitle : WEB0 I/ m8 @- ]! ^: L6 M
Language : English" t- d, N5 n3 H2 P4 B5 ?5 h
Default : No3 i) E7 Y; E0 w
Forced : No
1 j6 m9 K: n( ?8 x* j$ l  Q# u5 i" h; a7 y1 C! N0 h

6 H. {, ^: P) z% a: N4 q( RText #2) @3 ~- |: H) r  T* M& O7 E
ID : 5
$ H4 S& p. d) \) l8 Q  a$ `" wFormat : UTF-8
6 g& i9 J- ~0 x" U7 {Codec ID : S_TEXT/UTF8
6 e6 U( j# e8 S6 L* ~$ O8 |Codec ID/Info : UTF-8 Plain Text! f4 o* o- l" |8 M7 X8 s: P0 K$ v, h
Duration : 2 h 28 min
- ^. v/ k; Z: ?2 e& d1 h. rBit rate : 30 b/s
6 o" G; t, t; w& y! Y3 @$ w/ O2 [Count of elements : 1326
8 O" E- {6 J. W0 sStream size : 32.7 KiB (0%)
* O: G: @6 y% e$ eLanguage : English
7 J. r" z2 o# TDefault : No' Y' |2 r! B, O0 R
Forced : No4 W3 K8 ~7 f% {/ J

9 n# o4 t& K" @( z6 [5 A
. q$ S/ q/ y+ a) f
Text #3
" K! ?6 r3 Q  k, nID : 6. w! i- b  |/ s, T
Format : UTF-8
" D! ~4 _8 O$ c) GCodec ID : S_TEXT/UTF8
3 F& X0 z% N: a$ O' }- G. \Codec ID/Info : UTF-8 Plain Text
. ^" \$ J: _+ _) aDuration : 2 h 29 min' J1 V6 j* X4 a+ q. s) F  E' l# f
Bit rate : 30 b/s6 o8 f0 G( |# I
Count of elements : 1526
. B0 ]9 k% Q; CStream size : 33.4 KiB (0%)
6 c4 w1 L% E8 bTitle : SDH( e# x4 w3 I4 O: P; ~( F
Language : English3 j) b& Y( m) @, p
Default : No
: X( B2 {5 C; G3 `Forced : No: D8 @" T, @2 s1 l2 Q" v

, k- n+ {  `% s* g1 e; r/ C. N' ]  e
9 w  T; Y1 |9 q6 R" ^
Text #4  [' ?, x* k. Q9 G
ID : 7
) }+ ~) `% t1 g& j4 RFormat : UTF-8- P# Y! g1 W3 E
Codec ID : S_TEXT/UTF8; R0 ~- Q4 ]3 c" k! H  `7 }2 q
Codec ID/Info : UTF-8 Plain Text
4 y( F7 ~  J9 @( d" I3 N7 NDuration : 2 h 33 min1 p+ X) n) Y, ?7 ~0 [
Bit rate : 105 b/s
! i( ]; ]3 c5 F* C) pCount of elements : 2703+ e$ }5 {! S4 \6 M# o, S1 p
Stream size : 118 KiB (0%)
9 j3 c) P6 f9 _4 n; N, u: YTitle : Commentary by director Alejandro González Iñárritu and writer Guillermo Arriaga! C" w! m' H. A6 _  L/ X4 i
Language : English
# |# H3 }: x0 A7 K1 [3 v; f6 }Default : No+ x* z. a1 k$ z& ^
Forced : No
3 p; J0 y/ ~9 G  B% s9 w# a, J+ z6 d6 w9 j6 X5 L2 k) T
8 J5 {: b3 M1 D
Menu4 ?" i0 N$ W/ N' B& Z/ y8 K
00:00:00.000 : :1. Octavio and Susana( L4 P2 M0 }; d
00:03:30.000 : :2. Hit Man
! ?" I. @; I8 W, ^% f00:14:43.000 : :3. Jealousy
3 ?$ }/ L; G$ p  S+ ~00:25:03.000 : :4. A Winner
6 u  B2 q$ V% t' {& P" U- _00:35:56.000 : :5. Crossing the Line
- }. z% G2 v& M# R& d9 m) z( h00:45:17.000 : :6. Cheated
7 z# d3 ^- K4 P00:56:02.000 : :7. Surprise0 X5 R1 v% f0 }; R7 p% l
01:03:13.000 : :8. Daniel and Valeria, a  U0 _/ _0 Z; F9 v
01:12:44.000 : :9. Trapped
) c0 `  c8 O, z8 r8 }7 E4 m4 T. S01:25:24.000 : :10. Point of no Return% i* E. x$ n# J5 f: ]
01:34:15.000 : :11. El Chivo and Maru
7 K+ |# y( N4 x  G2 l! m& \01:44:38.000 : :12. Rescue
7 t0 x3 x* d5 q2 a/ k01:55:46.000 : :13. Wrong Place, Wrong Time
2 D* O: ?! B8 s* a8 A9 A6 t02:05:15.000 : :14. Show of Loyalty
" `3 a4 a+ N) C7 a. o# {02:15:09.000 : :15. Brother Against Brother
5 C4 Z) g: Y5 M* W" s02:23:11.000 : :16. A Second Chance
9 b* u; Y( G8 r2 M02:29:22.000 : :17. End credits
& L# g- ?- }3 j& _0 W

) p( M' m& o! Q) T7 j蓝光高清网提示您 点击下方附件名称 即可开始下载; l& h% Y5 S, ]
) e+ ^9 t; N8 M3 Q) s; X( x, V
! N/ m6 D% f- m# i# ~3 R
多版本下载时请注意区分) s' B% v  M% r5 B
( B. ]% K6 V5 a+ h' X
' O4 c- g% N0 C; j" D1 ]3 r7 F, N! s
狗男女的爱(港) / 爱是一条狗(台) / 人、爱、狗 / 爱情是母狗 / Love's a Bitch/爱情是狗娘4k.Amores.Perros.2000.SPANISH.2160p.WEB-DL.x265.10bit.HDR.DTS-HD.MA.5.1-4k电影下载
* r. T6 l% T5 Y6 [4 C9 v
1 F; l# n' {' B; B爱情是狗娘4k.Amores.Perros.2000.SPANISH.2160p.WEB-DL.x265.10bit.HDR.DTS-HD.MA.5.1【30.95 GB】1 M9 ^1 B8 a2 o" Z4 ?5 ^( Y) ?

爱情是狗娘4k.Amores.Perros.2000.SPANISH.2160p.WEB-DL.x265.10bit.HDR.DTS-HD.MA.5.1-TEPES.torrent ( 39.33 KB )


4 L/ w& M$ Y% N& P5 ^# G' M) i0 G) d/ B8 _4 X
爱情是狗娘4k.Amores.Perros.2000.SPANISH.2160p.WEB-DL.x265.10bit.SDR.DTS-HD.MA.5.1【26.62 GB】8 i; O3 ~$ D* v3 q

爱情是狗娘4k.Amores.Perros.2000.SPANISH.2160p.WEB-DL.x265.10bit.SDR.DTS-HD.MA.5.1-TEPES.torrent ( 33.92 KB )


" i  A4 }0 B3 `% [$ h! N7 O4 ~! I# {+ q% H* D+ s& H/ ^
爱情是狗娘4k.Amores.Perros.2000.SPANISH.2160p.WEB-DL.DD5.1.DV.MP4.x265【27.29  GB】
' T0 J% V+ O) b$ m; K$ b

爱情是狗娘4k.Amores.Perros.2000.SPANISH.2160p.WEB-DL.DD5.1.DV.MP4.x265-AllowMKVAlrdy.torrent ( 34.77 KB )

% L+ ]1 O0 l, s7 w& P/ s. H, s' g

) `) O# ]  p- d4 x+ E, s' a爱情是狗娘4k.Amores.Perros.2000.SPANISH.2160p.WEB-DL.DTS-HD.MA.5.1.DV.MKV.x265【31.02 GB】
5 U. o  B2 K; z

爱情是狗娘4k.Amores.Perros.2000.SPANISH.2160p.WEB-DL.DTS-HD.MA.5.1.DV.MKV.x265-TEPES.torrent ( 39.42 KB )


* M: G" D$ E' d  N; y4 j' ~4 I$ |' |( d# p3 N
爱情是狗娘中文字幕下载5 n/ }/ O, J% s

Amores.Perros.2000.REMASTERED.1080p.BluRay.x264-USURY.zip ( 92.66 KB )


( |, V& I  U0 S- }; x4 ?& I: K+ j, r8 Y

2 S5 Q; Q% r- j* N# F
加入蓝光高清网VIP会员  无限制下载本站所有资源---点这里

资源下载、资源播放、字幕使用、无法下载等常见问题---点这里
回复

使用道具 举报

全部回复1 显示全部楼层
蓝色街灯 发表于 2022-2-26 11:04:21 | 显示全部楼层
谢谢楼主,值得下载
回复 支持 反对

使用道具 举报

发表回复

您需要登录后才可以回帖 登录 | 立即注册

本版积分规则

联系客服 关注微信 下载APP 返回顶部 返回列表