本站已运行

蓝光高清网

搜索

[剧情片] 节日开始了 Let.Joy.Reign.Supreme.1975.FRENCH.1080p.BluRay.REMUX.AVC.DTS-HD.MA.2.0-FGT 26.41GB

蓝鸟 发表于 2022-4-29 10:45:50 | 显示全部楼层 |阅读模式

节日开始了 Let.Joy.Reign.Supreme.1975.FRENCH.1080p.BluRay.REMUX.AVC.DTS-HD.MA.2.0-FGT 26.41GB

节日开始了 Let.Joy.Reign.Supreme.1975.FRENCH.1080p.BluRay.REMUX.AVC.DTS-HD.MA.2.0-FGT 26.41GB


译  名 节日开始了 / Let Joy Reign Supreme
片  名 Que la fête commence
年  代 1975
产  地 法国
类  别 剧情 / 历史 / 战争
语  言 法语
上映日期 1975-03-23
片  长 114 分钟
导  演 贝特朗·塔维涅 Bertrand Tavernier
编  剧 让·奥朗什 Jean Aurenche
       贝特朗·塔维涅 Bertrand Tavernier
演  员 菲利普·努瓦雷 Philippe Noiret
       让·雷谢夫 Jean Rochefort
       让-皮埃尔·马里埃尔 Jean-Pierre Marielle
       雅克·黑林 Jacques Hilling
       Jean Le Mou?l Jean Le Mou?l
       贝尔纳·拉雅里热 Bernard La Jarrige
       Raymond Girard Raymond Girard
       Yvon Lec Yvon Lec
       皮埃尔·蒙科尔比耶 Pierre Moncorbier
       弗朗索瓦·迪雷克 Fran?ois Dyrek
       妮可·加西亚 Nicole Garcia
       克里斯蒂娜·帕斯卡尔 Christine Pascal
       伯纳黛特·勒·萨切 Bernadette Le Saché
       Fran?ois Valorbe Fran?ois Valorbe
       安德丽·坦茜 Andrée Tainsy
       Marie-Jo Simenon Marie-Jo Simenon
       让·鲁泽里 Jean Rougerie
       Georges Riquier Georges Riquier
       让-雅克·莫罗 Jean-Jacques Moreau
       热拉尔·德萨尔特 Gérard Desarthe
       皮埃尔·福格特 Pierre Forget
       米歇尔·布朗 Michel Blanc
       克里斯蒂昂·克拉维埃 Christian Clavier
       蒂埃里·莱尔米特 Thierry Lhermitte
       米彻·博恩 Michel Beaune
       丹尼尔·杜瓦尔 Daniel Duval
       Jean-Paul Farré Jean-Paul Farré
       布里吉特·罗安 Brigitte Roüan
       迈克尔·鲍威尔 Michael Powell
       热拉尔·朱尼奥 Gérard Jugnot
       玛丽那·维拉迪 Marina Vlady
       Stéphane Bouy Stéphane Bouy
       hilippe Chauveau Philippe Chauveau
       让-罗热·科西蒙 Jean-Roger Caussimon
       马塞尔·达里奥 Marcel Dalio
       莫妮克·肖梅特 Monique Chaumette
       Bruno Balp Bruno Balp
       Michel Berto Michel Berto
       罗兰·阿姆施图茨 Roland Amstutz
       海伦·文森特 Hélène Vincent
       阿尔弗雷德·亚当 Alfred Adam
       伊夫·罗贝尔 Yves Robert
       Michelle de Broca Michelle de Broca
       hilippe d''Orléans Philippe d''Orléans
       皮埃尔-威廉·格伦 Pierre-William Glenn
       Armand Psenny Armand Psenny
       皮埃尔·古弗罗伊 Pierre Guffroy
       Jacqueline Moreau Jacqueline Moreau
       劳伦特·海纳曼 Laurent Heynemann

简  介

France, 1719. Louis 14th died four years ago, Philippe d''Orleans is the regent. He is a liberal and a libertine. His right-hand man, Dubois, an atheistic and cupid priest, as libertine as Philippe, tries to take advantage of a little rebellion lead by a Breton squire (Pontallec) and of the famine to become archbishop... Description of the life of the court in this period of tra...


影片参数
  1. Video
  2. ID                                       : 1
  3. ID in the original source medium         : 4113 (0x1011)
  4. Format                                   : AVC
  5. Format/Info                              : Advanced Video Codec
  6. Format profile                           : [email protected]
  7. Format settings                          : CABAC / 4 Ref Frames
  8. Format settings, CABAC                   : Yes
  9. Format settings, Reference frames        : 4 frames
  10. Codec ID                                 : V_MPEG4/ISO/AVC
  11. Duration                                 : 1 h 59 min
  12. Bit rate mode                            : Variable
  13. Bit rate                                 : 29.9 Mb/s
  14. Maximum bit rate                         : 38.0 Mb/s
  15. Width                                    : 1 920 pixels
  16. Height                                   : 1 080 pixels
  17. Display aspect ratio                     : 16:9
  18. Frame rate mode                          : Constant
  19. Frame rate                               : 24.000 FPS
  20. Color space                              : YUV
  21. Chroma subsampling                       : 4:2:0
  22. Bit depth                                : 8 bits
  23. Scan type                                : Progressive
  24. Bits/(Pixel*Frame)                       : 0.601
  25. Stream size                              : 24.9 GiB (94%)
  26. Language                                 : English
  27. Default                                  : No
  28. Forced                                   : No
  29. Original source medium                   : Blu-ray
  30. Audio
  31. ID                                       : 2
  32. ID in the original source medium         : 4352 (0x1100)
  33. Format                                   : DTS XLL
  34. Format/Info                              : Digital Theater Systems
  35. Commercial name                          : DTS-HD Master Audio
  36. Codec ID                                 : A_DTS
  37. Duration                                 : 1 h 59 min
  38. Bit rate mode                            : Variable
  39. Bit rate                                 : 1 785 kb/s
  40. Channel(s)                               : 2 channels
  41. Channel layout                           : L R
  42. Sampling rate                            : 48.0 kHz
  43. Frame rate                               : 93.750 FPS (512 SPF)
  44. Bit depth                                : 24 bits
  45. Compression mode                         : Lossless
  46. Stream size                              : 1.49 GiB (6%)
  47. Title                                    : DTS-HD MA 2.0
  48. Language                                 : French
  49. Default                                  : Yes
  50. Forced                                   : No
  51. Original source medium                   : Blu-ray
  52. Text #1
  53. ID                                       : 3
  54. Format                                   : UTF-8
  55. Codec ID                                 : S_TEXT/UTF8
  56. Codec ID/Info                            : UTF-8 Plain Text
  57. Duration                                 : 1 h 57 min
  58. Bit rate                                 : 58 b/s
  59. Count of elements                        : 1450
  60. Stream size                              : 50.3 KiB (0%)
  61. Language                                 : English
  62. Default                                  : Yes
  63. Forced                                   : No
  64. Text #2
  65. ID                                       : 4
  66. ID in the original source medium         : 4610 (0x1202)
  67. Format                                   : PGS
  68. Muxing mode                              : zlib
  69. Codec ID                                 : S_HDMV/PGS
  70. Codec ID/Info                            : Picture based subtitle format used on BDs/HD-DVDs
  71. Duration                                 : 1 h 57 min
  72. Bit rate                                 : 37.8 kb/s
  73. Count of elements                        : 2902
  74. Stream size                              : 31.8 MiB (0%)
  75. Language                                 : English
  76. Default                                  : No
  77. Forced                                   : No
  78. Original source medium                   : Blu-ray
  79. Menu
  80. 00:00:00.000                             : en:Chapter 01
  81. 00:12:02.791                             : en:Chapter 02
  82. 00:23:30.250                             : en:Chapter 03
  83. 00:34:21.833                             : en:Chapter 04
  84. 00:44:25.250                             : en:Chapter 05
  85. 00:56:13.875                             : en:Chapter 06
  86. 01:06:16.083                             : en:Chapter 07
  87. 01:15:37.583                             : en:Chapter 08
  88. 01:28:36.250                             : en:Chapter 09
  89. 01:37:12.458                             : en:Chapter 10
  90. 01:50:18.375                             : en:Chapter 11
  91. 01:58:05.375                             : en:Chapter 12
复制代码



蓝光高清网提示您 点击下方附件即可下载

节日开始了 Let.Joy.Reign.Supreme.1975.FRENCH.1080p.BluRay.REMUX.AVC.DTS-HD.MA.2.0-FGT 26.41GB

Let.Joy.Reign.Supreme.1975.FRENCH.1080p.BluRay.REMUX.AVC.DTS-HD.MA.2.0-FGT.torrent ( 33.69 KB )

加入蓝光高清网VIP会员  无限制下载本站所有资源---点这里

资源下载、资源播放、字幕使用、无法下载等常见问题---点这里
回复

使用道具 举报

全部回复0 显示全部楼层

发表回复

您需要登录后才可以回帖 登录 | 立即注册

本版积分规则

开通会员 帮助中心 返回顶部 返回列表