本站已运行

蓝光高清网

搜索

[恐怖] 呼救无门 Trapped.Ashes.2006.1080p.BluRay.x264.DD5.1-HANDJOB 7.43GB

蓝鸟 发表于 2022-4-29 10:50:07 | 显示全部楼层 |阅读模式

呼救无门 Trapped.Ashes.2006.1080p.BluRay.x264.DD5.1-HANDJOB 7.43GB

呼救无门 Trapped.Ashes.2006.1080p.BluRay.x264.DD5.1-HANDJOB 7.43GB


译  名 呼救无门
片  名 Trapped Ashes
年  代 2006
产  地 美国 / 日本
类  别 恐怖
语  言 英语
上映日期 2006-09-12
豆瓣评分 5.8/10 (607人评价)
片  长 105 分钟
导  演 肖恩·S·坎宁安 Sean S. Cunningham
       蒙特·赫尔曼 Monte Hellman
       肯·罗素 Ken Russell
       乔·丹特 Joe Dante
       约翰·盖耶塔 John Gaeta
编  剧 丹尼斯·巴托克 Dennis Bartok
演  员 蕾切尔·维尔特里 Rachel Veltri
       卢克·马可法莱恩 Luke Macfarlane
       杰瑞·瓦塞尔曼 Jerry Wasserman
       温斯顿·雷克特 Winston Rekert
       石桥凌 Ryo Ishibashi
       杉本彩 Aya Sugimoto
       肯·罗素 Ken Russell
       迪克·米勒 Dick Miller
       泰格·伦岩 Tygh Runyan
       约翰·萨克松 John Saxon
       杰西·巴托克 Jayce Bartok
       伊藤洋三郎 Y?zabur? It?
       塔莫·潘尼凯 Tahmoh Penikett
       亨利·吉布森 Henry Gibson
       理查德·伊安·考克斯 Richard Ian Cox
       拉拉·哈里斯 Lara Harris
       斯科特·洛威尔 Scott Lowell
       John R. Taylor John R. Taylor
       Yoshifumi Hosoya Yoshifumi Hosoya
       丹尼斯·巴托克 Dennis Bartok
        Christopher Tricarico
       川井宪次 Kenji Kawai
       Susan Shopmaker Susan Shopmaker
       Candice Elzinga Candice Elzinga
       罗伯·威尔逊·金 Robb Wilson King
       Kathy Houghton Kathy Houghton
       Phil Chipera Phil Chipera
       丹尼斯·斯科塔克 Dennis Skotak
       Robert Lukacs Robert Lukacs
       Tibor Szakaly Tibor Szakaly
       Steven Ilous Steven Ilous
       Brad Heiner Brad Heiner
       罗伯特·斯科塔克 Robert Skotak
       派特·迈克朗 Pat McClung

简  介

七个互不相识的陌生人来到好莱坞的电影制片厂进行参观,却被莫名其妙的困在一处专门拍恐怖片的摄影棚内。他们必须亲身经历一系列的恐怖事件才能逃出生天...


影片参数
  1. Video
  2. ID                                       : 1
  3. Format                                   : AVC
  4. Format/Info                              : Advanced Video Codec
  5. Format profile                           : [email protected]
  6. Format settings                          : CABAC / 4 Ref Frames
  7. Format settings, CABAC                   : Yes
  8. Format settings, Reference frames        : 4 frames
  9. Codec ID                                 : V_MPEG4/ISO/AVC
  10. Duration                                 : 1 h 40 min
  11. Bit rate                                 : 9 988 kb/s
  12. Width                                    : 1 918 pixels
  13. Height                                   : 1 036 pixels
  14. Display aspect ratio                     : 1.85:1
  15. Frame rate mode                          : Constant
  16. Frame rate                               : 25.000 FPS
  17. Color space                              : YUV
  18. Chroma subsampling                       : 4:2:0
  19. Bit depth                                : 8 bits
  20. Scan type                                : Progressive
  21. Bits/(Pixel*Frame)                       : 0.201
  22. Stream size                              : 6.98 GiB (94%)
  23. Writing library                          : x264 core 164 r3065 ae03d92
  24. Encoding settings                        : cabac=1 / ref=4 / deblock=1:-3:-3 / analyse=0x3:0x133 / me=umh / subme=10 / psy=1 / psy_rd=1.00:0.00 / mixed_ref=1 / me_range=32 / chroma_me=1 / trellis=2 / 8x8dct=1 / cqm=0 / deadzone=21,11 / fast_pskip=0 / chroma_qp_offset=-2 / threads=32 / lookahead_threads=8 / sliced_threads=0 / nr=0 / decimate=0 / interlaced=0 / bluray_compat=0 / constrained_intra=0 / bframes=16 / b_pyramid=2 / b_adapt=2 / b_bias=0 / direct=3 / weightb=1 / open_gop=0 / weightp=2 / keyint=250 / keyint_min=25 / scenecut=40 / intra_refresh=0 / rc_lookahead=60 / rc=crf / mbtree=0 / crf=21.0 / qcomp=0.60 / qpmin=0 / qpmax=69 / qpstep=4 / vbv_maxrate=62500 / vbv_bufsize=78125 / crf_max=0.0 / nal_hrd=none / filler=0 / ip_ratio=1.40 / pb_ratio=1.30 / aq=2:1.00
  25. Default                                  : Yes
  26. Forced                                   : No
  27. Color range                              : Limited
  28. Color primaries                          : BT.709
  29. Transfer characteristics                 : BT.709
  30. Matrix coefficients                      : BT.709
  31. Audio
  32. ID                                       : 2
  33. Format                                   : AC-3
  34. Format/Info                              : Audio Coding 3
  35. Commercial name                          : Dolby Digital
  36. Codec ID                                 : A_AC3
  37. Duration                                 : 1 h 40 min
  38. Bit rate mode                            : Constant
  39. Bit rate                                 : 640 kb/s
  40. Channel(s)                               : 6 channels
  41. Channel layout                           : L R C LFE Ls Rs
  42. Sampling rate                            : 48.0 kHz
  43. Frame rate                               : 31.250 FPS (1536 SPF)
  44. Compression mode                         : Lossy
  45. Stream size                              : 458 MiB (6%)
  46. Language                                 : English
  47. Service kind                             : Complete Main
  48. Default                                  : Yes
  49. Forced                                   : No
  50. Menu
  51. 00:00:00.000                             : :Chapter 01
  52. 00:12:07.840                             : :Chapter 02
  53. 00:31:01.320                             : :Chapter 03
  54. 00:51:14.080                             : :Chapter 04
  55. 01:12:00.600                             : :Chapter 05
  56. 01:34:59.080                             : :Chapter 06
复制代码



蓝光高清网提示您 点击下方附件即可下载

呼救无门 Trapped.Ashes.2006.1080p.BluRay.x264.DD5.1-HANDJOB 7.43GB

Trapped.Ashes.2006.1080p.BluRay.x264.DD5.1-HANDJOB.torrent ( 19.2 KB )

加入蓝光高清网VIP会员  无限制下载本站所有资源---点这里

资源下载、资源播放、字幕使用、无法下载等常见问题---点这里
回复

使用道具 举报

全部回复0 显示全部楼层

发表回复

您需要登录后才可以回帖 登录 | 立即注册

本版积分规则

开通会员 帮助中心 返回顶部 返回列表