本站已运行

蓝光高清网

搜索

[剧情] 甘草披萨 Licorice.Pizza.2021.1080p.BluRay.x264.DTS-MT 16.44GB

蓝鸟 发表于 2022-5-4 08:03:03 | 显示全部楼层 |阅读模式

甘草披萨 Licorice.Pizza.2021.1080p.BluRay.x264.DTS-MT 16.44GB

甘草披萨 Licorice.Pizza.2021.1080p.BluRay.x264.DTS-MT 16.44GB


译  名 甘草披萨 / 甘草比萨 / 湿底 / Soggy Bottom / The Night of Counting the Years
片  名 Licorice Pizza
年  代 2021
产  地 美国 / 加拿大
类  别 剧情 / 喜剧
语  言 英语
上映日期 2021-11-26(美国点映) / 2021-12-25(美国)
豆瓣评分 6.8/10 (18010人评价)
片  长 133分钟
导  演 保罗·托马斯·安德森 Paul Thomas Anderson
编  剧 保罗·托马斯·安德森 Paul Thomas Anderson
演  员 阿拉娜·哈伊姆 Alana Haim
       库珀·霍夫曼 Cooper Hoffman
       斯凯勒·吉桑多 Skyler Gisondo
       玛丽·伊丽莎白·埃利斯 Mary Elizabeth Ellis
       约翰·迈克尔·辛吉斯 John Michael Higgins
       克斯汀·埃伯索尔 Christine Ebersole
       哈里特·桑塞姆·哈里斯 Harriet Sansom Harris
       西恩·潘 Sean Penn
       汤姆·威兹 Tom Waits
       布莱德利·库珀 Bradley Cooper
       瑞恩·赫芬顿 Ryan Heffington
       内特·曼 Nate Mann
       本·萨弗迪 Ben Safdie
       约瑟夫·克罗斯 Joseph Cross
       丹妮尔·哈伊姆 Danielle Haim
       埃斯特·哈伊姆 Este Haim
       莫迪·哈伊姆 Moti Haim  
       唐娜·哈伊姆 Donna Haim  
       玛娅·鲁道夫 Maya Rudolph
       约翰·C·赖利 John C. Reilly
       艾玛·杜蒙特 Emma Dumont
       萨沙·斯皮尔伯格 Sasha Spielberg
       德莱纳·米切尔 Delaina Mitchell
       利兹·卡科斯基 Liz Cackowski
       泰勒·杨 Tyler Young
       Josh Monkarsh Josh Monkarsh
       马克斯·米切尔 Max Mitchell
       Tim Conway Jr. Tim Conway Jr.
       伊亚娜·哈雷 Iyana Halley
       艾米莉·奥尔索斯 Emily Althaus
       克雷格·斯塔克 Craig Stark
       雷·蔡斯 Ray Chase
       可可·索伦 Coco Soren
       伊莎贝尔·库斯曼 Isabelle Kusman
       雷·尼科尔森 Ray Nicholson
       贾亮 Josh Richards
       安东尼·莫利纳利 Anthony Molinari
       理查德·B·拉里莫尔 Richard B. Larimore
       米洛·赫施拉格  
       保罗·托马斯·安德森 Paul Thomas Anderson
       强尼·格林伍德 Jonny Greenwood
        Michael Bauman
       保罗·托马斯·安德森 Paul Thomas Anderson
        Andy Jurgensen

简  介

这部影片以20世纪70年代为背景,故事围绕一位高中生,讲述了阿拉娜·凯恩和加里·瓦伦丁在1973年在圣费尔南多谷成长、四处奔波和坠入爱河的故事。


获奖情况 (共26项)

第94届奥斯卡金像奖 (2022)
  最佳影片(提名)
  最佳导演(提名)
   └──保罗·托马斯·安德森
  最佳原创剧本(提名)
   └──保罗·托马斯·安德森
  第79届金球奖 (2022)
  电影类 最佳音乐/喜剧片(提名)
  电影类 音乐/喜剧片最佳男主角(提名)
   └──库珀·霍夫曼
  电影类 音乐/喜剧片最佳女主角(提名)
   └──阿拉娜·哈伊姆
  电影类 最佳编剧(提名)
   └──保罗·托马斯·安德森
  第75届英国电影学院奖 (2022)
  电影奖 最佳影片(提名)
  电影奖 最佳导演(提名)
   └──保罗·托马斯·安德森
  电影奖 最佳女主角(提名)
   └──阿拉娜·哈伊姆
  电影奖 最佳原创剧本
  电影奖 最佳剪辑(提名)
  第74届美国导演工会奖 (2022)
  最佳电影导演(提名)
   └──保罗·托马斯·安德森
  第28届美国演员工会奖 (2022)
  电影奖 最佳男配角(提名)
   └──布莱德利·库珀
  第74届美国编剧工会奖 (2022)
  电影奖 最佳原创剧本(提名)
   └──保罗·托马斯·安德森
  第87届纽约影评人协会奖 (2021)
  最佳剧本
   └──保罗·托马斯·安德森
  第27届美国评论家选择电影奖 (2022)
  最佳影片(提名)
  最佳导演(提名)
   └──保罗·托马斯·安德森
  最佳女主角(提名)
   └──阿拉娜·哈伊姆
  最佳青少年演员(提名)
   └──库珀·霍夫曼
  最佳群戏(提名)
  最佳喜剧片
  最佳原创剧本(提名)
   └──保罗·托马斯·安德森
  最佳剪辑(提名)
   └──Andy Jurgensen
  第56届美国国家影评人协会奖 (2022)
  最佳女主角(提名)
   └──阿拉娜·哈伊姆
  最佳剧本(提名)
   └──保罗·托马斯·安德森


影片参数
  1. Video
  2. ID                                       : 1
  3. Format                                   : AVC
  4. Format/Info                              : Advanced Video Codec
  5. Format profile                           : [email protected]
  6. Format settings                          : CABAC / 5 Ref Frames
  7. Format settings, CABAC                   : Yes
  8. Format settings, Reference frames        : 5 frames
  9. Codec ID                                 : V_MPEG4/ISO/AVC
  10. Duration                                 : 2 h 13 min
  11. Bit rate                                 : 16.1 Mb/s
  12. Width                                    : 1 920 pixels
  13. Height                                   : 804 pixels
  14. Display aspect ratio                     : 2.40:1
  15. Frame rate mode                          : Constant
  16. Frame rate                               : 23.976 (24000/1001/189150) FPS
  17. Color space                              : YUV
  18. Chroma subsampling                       : 4:2:0
  19. Bit depth                                : 8 bits
  20. Scan type                                : Progressive
  21. Bits/(Pixel*Frame)                       : 0.436
  22. Stream size                              : 15.0 GiB (91%)
  23. Writing library                          : x264 core 157 r2938 2b00a84 [email protected] Mod
  24. Encoding settings                        : cabac=1 / ref=5 / deblock=1:-3:-3 / analyse=0x3:0x133 / me=umh / subme=10 / psy=1 / psy_rd=1.05:0.00 / mixed_ref=1 / me_range=32 / chroma_me=1 / trellis=2 / 8x8dct=1 / cqm=0 / deadzone=21,11 / fast_pskip=0 / chroma_qp_offset=-2 / threads=12 / lookahead_threads=2 / sliced_threads=0 / nr=0 / decimate=0 / interlaced=0 / bluray_compat=0 / constrained_intra=0 / bframes=8 / b_pyramid=2 / b_adapt=2 / b_bias=0 / direct=3 / weightb=1 / open_gop=0 / weightp=2 / keyint=250 / keyint_min=24 / scenecut=40 / intra_refresh=0 / rc_lookahead=250 / rc=crf / mbtree=0 / crf=16.8 / qcomp=0.60 / qpmin=0 / qpmax=69 / qpstep=4 / vbv_maxrate=62500 / vbv_bufsize=78125 / crf_max=0.0 / nal_hrd=none / filler=0 / ip_ratio=1.30 / pb_ratio=1.20 / aq=3:0.80
  25. Language                                 : English
  26. Default                                  : Yes
  27. Forced                                   : No
  28. Color range                              : Limited
  29. Color primaries                          : BT.709
  30. Matrix coefficients                      : BT.709
  31. Audio
  32. ID                                       : 2
  33. Format                                   : DTS
  34. Format/Info                              : Digital Theater Systems
  35. Codec ID                                 : A_DTS
  36. Duration                                 : 2 h 13 min
  37. Bit rate mode                            : Constant
  38. Bit rate                                 : 1 509 kb/s
  39. Channel(s)                               : 6 channels
  40. Channel layout                           : C L R Ls Rs LFE
  41. Sampling rate                            : 48.0 kHz
  42. Frame rate                               : 93.750 FPS (512 SPF)
  43. Bit depth                                : 24 bits
  44. Compression mode                         : Lossy
  45. Stream size                              : 1.41 GiB (9%)
  46. Language                                 : English
  47. Default                                  : Yes
  48. Forced                                   : No
  49. Text #1
  50. ID                                       : 3
  51. Format                                   : UTF-8
  52. Codec ID                                 : S_TEXT/UTF8
  53. Codec ID/Info                            : UTF-8 Plain Text
  54. Duration                                 : 2 h 13 min
  55. Bit rate                                 : 69 b/s
  56. Count of elements                        : 1997
  57. Stream size                              : 68.2 KiB (0%)
  58. Language                                 : English
  59. Default                                  : Yes
  60. Forced                                   : No
  61. Text #2
  62. ID                                       : 4
  63. Format                                   : UTF-8
  64. Codec ID                                 : S_TEXT/UTF8
  65. Codec ID/Info                            : UTF-8 Plain Text
  66. Duration                                 : 2 h 13 min
  67. Bit rate                                 : 75 b/s
  68. Count of elements                        : 2180
  69. Stream size                              : 74.1 KiB (0%)
  70. Title                                    : SDH
  71. Language                                 : English
  72. Default                                  : No
  73. Forced                                   : No
  74. Menu
  75. 00:00:00.000                             : en:Chapter 01
  76. 00:06:34.894                             : en:Chapter 02
  77. 00:14:45.259                             : en:Chapter 03
  78. 00:21:21.906                             : en:Chapter 04
  79. 00:29:28.266                             : en:Chapter 05
  80. 00:38:54.207                             : en:Chapter 06
  81. 00:43:49.001                             : en:Chapter 07
  82. 00:48:32.701                             : en:Chapter 08
  83. 00:55:18.690                             : en:Chapter 09
  84. 01:01:19.718                             : en:Chapter 10
  85. 01:16:12.860                             : en:Chapter 11
  86. 01:35:21.049                             : en:Chapter 12
  87. 01:40:56.092                             : en:Chapter 13
  88. 01:49:54.546                             : en:Chapter 14
  89. 02:00:45.071                             : en:Chapter 15
复制代码



蓝光高清网提示您 点击下方附件即可下载

甘草披萨 Licorice.Pizza.2021.1080p.BluRay.x264.DTS-MT 16.44GB

Licorice.Pizza.2021.1080p.BluRay.x264.DTS-MT.torrent ( 21.15 KB )

加入蓝光高清网VIP会员  无限制下载本站所有资源---点这里

资源下载、资源播放、字幕使用、无法下载等常见问题---点这里
回复

使用道具 举报

全部回复0 显示全部楼层

发表回复

您需要登录后才可以回帖 登录 | 立即注册

本版积分规则

开通会员 帮助中心 返回顶部 返回列表