本站已运行

蓝光高清网

搜索

[剧情] 维也纳快车 Coach.to.Vienna.1966.1080p.BluRay.x264-BiPOLAR 7.38GB

蓝鸟 发表于 2022-5-4 08:04:43 | 显示全部楼层 |阅读模式

维也纳快车 Coach.to.Vienna.1966.1080p.BluRay.x264-BiPOLAR 7.38GB

维也纳快车 Coach.to.Vienna.1966.1080p.BluRay.x264-BiPOLAR 7.38GB


译  名 维也纳快车 / Carriage to Vienna / Coach to Vienna
片  名 Kocár do Vídne
年  代 1966
产  地 捷克斯洛伐克
类  别 剧情 / 战争
语  言 德语 / 俄语 / 捷克语
上映日期 1966-11-11
豆瓣评分 8.1/10 (326人评价)
片  长 115 分钟
导  演 卡尔·卡切纳 Karel Kachyna
编  剧 卡尔·卡切纳 Karel Kachyna
       扬·普罗哈兹卡 Jan Procházka
演  员 亚罗米尔·汉兹利克 Jaromír Hanzlík
       卢德克·蒙扎尔 Ludek Munzar
       伊娃·简祖罗娃 Iva Janzurová
       伊沃·尼德勒 Ivo Niederle
       扬·诺瓦克 Jan Novák
       Josef Illík Josef Illík

简  介

这是一个发生在二战期间的故事,一名从俄军那儿逃跑的奥地利士兵来到一位村妇家命其备好马车跟他走,为了去救他受伤的同伴……


影片参数
  1. Video
  2. ID                                       : 1
  3. Format                                   : AVC
  4. Format/Info                              : Advanced Video Codec
  5. Format profile                           : [email protected]
  6. Format settings                          : CABAC / 5 Ref Frames
  7. Format settings, CABAC                   : Yes
  8. Format settings, Reference frames        : 5 frames
  9. Codec ID                                 : V_MPEG4/ISO/AVC
  10. Duration                                 : 1 h 19 min
  11. Bit rate                                 : 12.6 Mb/s
  12. Width                                    : 1 920 pixels
  13. Height                                   : 816 pixels
  14. Display aspect ratio                     : 2.35:1
  15. Frame rate mode                          : Constant
  16. Frame rate                               : 24.000 FPS
  17. Color space                              : YUV
  18. Chroma subsampling                       : 4:2:0
  19. Bit depth                                : 8 bits
  20. Scan type                                : Progressive
  21. Bits/(Pixel*Frame)                       : 0.334
  22. Stream size                              : 6.97 GiB (95%)
  23. Writing library                          : x264 core 164 r3094 bfc87b7
  24. Encoding settings                        : cabac=1 / ref=5 / deblock=1:-3:-3 / analyse=0x3:0x133 / me=umh / subme=10 / psy=1 / psy_rd=1.00:0.15 / mixed_ref=1 / me_range=24 / chroma_me=1 / trellis=2 / 8x8dct=1 / cqm=0 / deadzone=21,11 / fast_pskip=1 / chroma_qp_offset=-3 / threads=18 / lookahead_threads=3 / sliced_threads=0 / nr=0 / decimate=1 / interlaced=0 / bluray_compat=0 / constrained_intra=0 / bframes=8 / b_pyramid=2 / b_adapt=2 / b_bias=0 / direct=3 / weightb=1 / open_gop=0 / weightp=2 / keyint=250 / keyint_min=24 / scenecut=40 / intra_refresh=0 / rc_lookahead=60 / rc=crf / mbtree=1 / crf=16.0 / qcomp=0.60 / qpmin=0 / qpmax=69 / qpstep=4 / ip_ratio=1.40 / aq=3:0.50
  25. Language                                 : English
  26. Default                                  : Yes
  27. Forced                                   : No
  28. Color range                              : Limited
  29. Matrix coefficients                      : BT.709

  30. Audio #1
  31. ID                                       : 2
  32. Format                                   : FLAC
  33. Format/Info                              : Free Lossless Audio Codec
  34. Codec ID                                 : A_FLAC
  35. Duration                                 : 1 h 19 min
  36. Bit rate mode                            : Variable
  37. Bit rate                                 : 631 kb/s
  38. Channel(s)                               : 1 channel
  39. Channel layout                           : C
  40. Sampling rate                            : 48.0 kHz
  41. Frame rate                               : 11.719 FPS (4096 SPF)
  42. Bit depth                                : 24 bits
  43. Compression mode                         : Lossless
  44. Stream size                              : 359 MiB (5%)
  45. Writing library                          : libFLAC 1.2.1 (UTC 2007-09-17)
  46. Language                                 : Czech
  47. Default                                  : Yes
  48. Forced                                   : No

  49. Audio #2
  50. ID                                       : 3
  51. Format                                   : AAC LC
  52. Format/Info                              : Advanced Audio Codec Low Complexity
  53. Codec ID                                 : A_AAC-2
  54. Duration                                 : 1 h 19 min
  55. Bit rate                                 : 92.2 kb/s
  56. Channel(s)                               : 2 channels
  57. Channel layout                           : L R
  58. Sampling rate                            : 48.0 kHz
  59. Frame rate                               : 46.875 FPS (1024 SPF)
  60. Compression mode                         : Lossy
  61. Delay relative to video                  : 9 ms
  62. Stream size                              : 52.4 MiB (1%)
  63. Title                                    : English Commentary by Mike White, Samm Deighan and Kat Ellinger
  64. Language                                 : English
  65. Default                                  : No
  66. Forced                                   : No

  67. Text #1
  68. ID                                       : 4
  69. Format                                   : UTF-8
  70. Codec ID                                 : S_TEXT/UTF8
  71. Codec ID/Info                            : UTF-8 Plain Text
  72. Duration                                 : 1 h 19 min
  73. Bit rate                                 : 15 b/s
  74. Count of elements                        : 318
  75. Stream size                              : 8.75 KiB (0%)
  76. Title                                    : English
  77. Language                                 : English
  78. Default                                  : Yes
  79. Forced                                   : Yes

  80. Text #2
  81. ID                                       : 5
  82. Format                                   : PGS
  83. Muxing mode                              : zlib
  84. Codec ID                                 : S_HDMV/PGS
  85. Codec ID/Info                            : Picture based subtitle format used on BDs/HD-DVDs
  86. Duration                                 : 1 h 19 min
  87. Bit rate                                 : 3 946 b/s
  88. Count of elements                        : 620
  89. Stream size                              : 2.24 MiB (0%)
  90. Title                                    : English
  91. Language                                 : English
  92. Default                                  : No
  93. Forced                                   : No

  94. Menu
  95. 00:00:00.000                             : en:00:00:00.000
  96. 00:05:23.042                             : en:00:05:23.042
  97. 00:11:55.292                             : en:00:11:55.292
  98. 00:19:36.375                             : en:00:19:36.375
  99. 00:29:10.583                             : en:00:29:10.583
  100. 00:35:50.958                             : en:00:35:50.958
  101. 00:37:26.000                             : en:00:37:26.000
  102. 00:47:51.333                             : en:00:47:51.333
  103. 00:55:17.625                             : en:00:55:17.625
  104. 01:02:31.458                             : en:01:02:31.458
  105. 01:10:29.375                             : en:01:10:29.375
  106. 01:13:38.375                             : en:01:13:38.375
复制代码

维也纳快车 Coach.to.Vienna.1966.1080p.BluRay.x264-BiPOLAR 7.38GB

维也纳快车 Coach.to.Vienna.1966.1080p.BluRay.x264-BiPOLAR 7.38GB



蓝光高清网提示您 点击下方附件即可下载

维也纳快车 Coach.to.Vienna.1966.1080p.BluRay.x264-BiPOLAR 7.38GB

Coach.to.Vienna.1966.1080p.BluRay.x264-BiPOLAR.torrent ( 19.18 KB )

加入蓝光高清网VIP会员  无限制下载本站所有资源---点这里

资源下载、资源播放、字幕使用、无法下载等常见问题---点这里
回复

使用道具 举报

全部回复0 显示全部楼层

发表回复

您需要登录后才可以回帖 登录 | 立即注册

本版积分规则

楼主

超级版主

热门推荐

开通会员 帮助中心 返回顶部 返回列表