本站已运行

蓝光高清网

搜索

[剧情] 希丽亚 Celia.1989.1080p.BluRay.x264-USURY 15.50GB

蓝鸟 发表于 2022-5-10 10:12:04 | 显示全部楼层 |阅读模式

希丽亚 Celia.1989.1080p.BluRay.x264-USURY 15.50GB

希丽亚 Celia.1989.1080p.BluRay.x264-USURY 15.50GB


译  名 希丽亚 / Celia: Child of Terror
片  名 Celia
年  代 1989
产  地 澳大利亚
类  别 剧情 / 恐怖 / 奇幻
语  言 英语
上映日期 1989
豆瓣评分 7.3/10 (76人评价)
片  长 102 分钟
导  演 安·特纳 Ann Turner
编  剧 安·特纳 Ann Turner
演  员 Rebecca Smart Rebecca Smart
        Victoria Longley
       阿德里安·米切尔 Adrian Mitchell
       Victoria Longley Victoria Longley
       黛博拉-李·福奈丝 Deborra-Lee Furness
       Mary-Anne Fahey Mary-Anne Fahey
       Ernest Wilson Ernest Wilson
       威廉·扎帕 William Zappa
       Kim Lardner Kim Lardner
       雷格·埃文斯 Reg Evans
       Amelia Frid Amelia Frid
       Timothy White Timothy White
       Ian Pringle Ian Pringle
       Chris Neal Chris Neal
       杰弗瑞·辛普森 Geoffrey Simpson
       Ken Sallows Ken Sallows
       Rose Chong Rose Chong

简  介

An imaginative and somewhat disturbed young girl fantasizes about evil creatures and other oddities to mask her insecurities while growing up in rural Australia.


影片参数
  1. Video
  2. ID                                       : 1
  3. Format                                   : AVC
  4. Format/Info                              : Advanced Video Codec
  5. Format profile                           : [email protected]
  6. Format settings                          : CABAC / 4 Ref Frames
  7. Format settings, CABAC                   : Yes
  8. Format settings, Reference frames        : 4 frames
  9. Codec ID                                 : V_MPEG4/ISO/AVC
  10. Duration                                 : 1 h 43 min
  11. Bit rate                                 : 20.7 Mb/s
  12. Width                                    : 1 920 pixels
  13. Height                                   : 1 038 pixels
  14. Display aspect ratio                     : 1.85:1
  15. Frame rate mode                          : Constant
  16. Frame rate                               : 24.000 FPS
  17. Color space                              : YUV
  18. Chroma subsampling                       : 4:2:0
  19. Bit depth                                : 8 bits
  20. Scan type                                : Progressive
  21. Bits/(Pixel*Frame)                       : 0.433
  22. Stream size                              : 14.9 GiB (96%)
  23. Writing library                          : x264 core 164 r3094 bfc87b7
  24. Encoding settings                        : cabac=1 / ref=4 / deblock=1:-3:-3 / analyse=0x3:0x133 / me=umh / subme=10 / psy=1 / psy_rd=1.00:0.15 / mixed_ref=1 / me_range=24 / chroma_me=1 / trellis=2 / 8x8dct=1 / cqm=0 / deadzone=21,11 / fast_pskip=1 / chroma_qp_offset=-3 / threads=18 / lookahead_threads=3 / sliced_threads=0 / nr=0 / decimate=1 / interlaced=0 / bluray_compat=0 / constrained_intra=0 / bframes=8 / b_pyramid=2 / b_adapt=2 / b_bias=0 / direct=3 / weightb=1 / open_gop=0 / weightp=2 / keyint=250 / keyint_min=24 / scenecut=40 / intra_refresh=0 / rc_lookahead=60 / rc=crf / mbtree=1 / crf=18.1 / qcomp=0.60 / qpmin=0 / qpmax=69 / qpstep=4 / ip_ratio=1.40 / aq=3:0.50
  25. Language                                 : English
  26. Default                                  : Yes
  27. Forced                                   : No
  28. Color range                              : Limited
  29. Matrix coefficients                      : BT.709

  30. Audio
  31. ID                                       : 2
  32. Format                                   : FLAC
  33. Format/Info                              : Free Lossless Audio Codec
  34. Codec ID                                 : A_FLAC
  35. Duration                                 : 1 h 43 min
  36. Bit rate mode                            : Variable
  37. Bit rate                                 : 790 kb/s
  38. Channel(s)                               : 2 channels
  39. Channel layout                           : L R
  40. Sampling rate                            : 48.0 kHz
  41. Frame rate                               : 11.719 FPS (4096 SPF)
  42. Bit depth                                : 24 bits
  43. Compression mode                         : Lossless
  44. Stream size                              : 583 MiB (4%)
  45. Writing library                          : libFLAC 1.2.1 (UTC 2007-09-17)
  46. Language                                 : English
  47. Default                                  : Yes
  48. Forced                                   : No

  49. Text #1
  50. ID                                       : 3
  51. Format                                   : UTF-8
  52. Codec ID                                 : S_TEXT/UTF8
  53. Codec ID/Info                            : UTF-8 Plain Text
  54. Duration                                 : 1 h 39 min
  55. Bit rate                                 : 36 b/s
  56. Count of elements                        : 986
  57. Stream size                              : 26.8 KiB (0%)
  58. Title                                    : English
  59. Language                                 : English
  60. Default                                  : No
  61. Forced                                   : No

  62. Text #2
  63. ID                                       : 4
  64. Format                                   : UTF-8
  65. Codec ID                                 : S_TEXT/UTF8
  66. Codec ID/Info                            : UTF-8 Plain Text
  67. Duration                                 : 1 h 40 min
  68. Bit rate                                 : 43 b/s
  69. Count of elements                        : 1222
  70. Stream size                              : 32.0 KiB (0%)
  71. Title                                    : English SDH
  72. Language                                 : English
  73. Default                                  : No
  74. Forced                                   : No

  75. Text #3
  76. ID                                       : 5
  77. Format                                   : PGS
  78. Muxing mode                              : zlib
  79. Codec ID                                 : S_HDMV/PGS
  80. Codec ID/Info                            : Picture based subtitle format used on BDs/HD-DVDs
  81. Duration                                 : 1 h 40 min
  82. Bit rate                                 : 11.3 kb/s
  83. Count of elements                        : 1915
  84. Stream size                              : 8.12 MiB (0%)
  85. Title                                    : English SDH
  86. Language                                 : English
  87. Default                                  : No
  88. Forced                                   : No

  89. Menu
  90. 00:00:00.000                             : en:00:00:00.000
  91. 00:12:20.625                             : en:00:12:20.625
  92. 00:20:27.750                             : en:00:20:27.750
  93. 00:26:47.583                             : en:00:26:47.583
  94. 00:35:28.333                             : en:00:35:28.333
  95. 00:47:23.167                             : en:00:47:23.167
  96. 00:57:26.625                             : en:00:57:26.625
  97. 01:08:17.542                             : en:01:08:17.542
  98. 01:15:41.750                             : en:01:15:41.750
  99. 01:24:30.208                             : en:01:24:30.208
  100. 01:31:55.000                             : en:01:31:55.000
  101. 01:38:36.667                             : en:01:38:36.667
复制代码



蓝光高清网提示您 点击下方附件即可下载

希丽亚 Celia.1989.1080p.BluRay.x264-USURY 15.50GB

Celia.1989.1080p.BluRay.x264-USURY.torrent ( 20.07 KB )

加入蓝光高清网VIP会员  无限制下载本站所有资源---点这里

资源下载、资源播放、字幕使用、无法下载等常见问题---点这里
回复

使用道具 举报

全部回复1 显示全部楼层
wangzhang3手机认证 发表于 2022-5-10 18:52:55 | 显示全部楼层
又是B级恐怖片?路过
回复 支持 反对

使用道具 举报

发表回复

您需要登录后才可以回帖 登录 | 立即注册

本版积分规则

开通会员 帮助中心 返回顶部 返回列表