蓝光高清网

搜索
开启左侧

DC展台:康斯坦丁/康斯坦丁:神秘之所 4k.DC.Showcase.Constantine.The.House.of.Mystery.2022.2160p.iT.WEB-DL.x265.10bit.HDR.DD5.1-4k电影下载-13.14 GB

蓝鸟 发表于 7 天前 | 显示全部楼层 |阅读模式
康斯坦丁:神秘之所 豆瓣评分: 6.0分
上映时间:2022年
类型:动画 
地区:美国 
导演:马特·皮特斯
主演:Ray Chase / 罗宾·阿特金·唐斯 / Grey Griffin
画质标准:4K HDR  封装音轨:Dolby TrueHD 5.1 
简       介, c6 a2 _  P& h! ~
: c; V2 Q6 M5 m$ W0 C2 u  P
  《康斯坦丁:神秘之所》是一部以约翰·康斯坦丁为主角的动画短片。在这部动画短片中,主角将在一个“诡异的神秘房子里醒来,完全不记得自己是如何在这里结束的”。此前曾在DC电影和电视剧(包括短命电视剧《康斯坦丁》)中为这个反英雄角色配音的马特·瑞恩,日前被证实将再次为这个角色配音。
# Y8 F9 K' ]2 g+ B( {& K, a4 z0 v
# e  m; S. P+ Y) n
影片参数4 i; j* c2 R  M
DC Showcase – Constantine: House of Mystery / DC展台:康斯坦丁/康斯坦丁:神秘之所4k.DC.Showcase.Constantine.The.House.of.Mystery.2022.2160p.iT.WEB-DL.x265.10bit.HDR.DD5.1-4k电影信息
- Q: D9 i, d9 {- IVideo
. X" X( }3 l$ V* R5 H0 nID : 11 r0 u6 b0 Z, Y2 c! P6 n
Format : HEVC$ M9 S  T4 N: @
Format/Info : High Efficiency Video Coding3 J0 N5 y& z* B& D% }
Format profile : Main 10@L5@High. R' `' K& `* F
HDR format : SMPTE ST 2086, HDR10 compatible5 x' q2 A: L/ V( _& P  y2 v& c
Codec ID : V_MPEGH/ISO/HEVC
/ J6 P% P' }2 U9 @Duration : 1 h 16 min; o4 q. _- X/ h4 v+ v1 B
Bit rate : 24.3 Mb/s
; n& u+ x( Y2 J! S0 F5 ?Width : 3 840 pixels* f  R& p/ g7 K0 o3 g% ^
Height : 2 160 pixels
3 @- N% j! D5 H: _1 N# TDisplay aspect ratio : 16:9! x: \" X1 s3 ]6 @' v. B) O6 N
Frame rate mode : Constant' [2 v% ?2 [6 @
Frame rate : 23.976 FPS4 F; f: l- n1 G" R
Color space : YUV
% D8 N; J5 F/ c) DChroma subsampling : 4:2:0 (Type 2)2 @/ g' [5 Y/ n; n2 Y7 R% j
Bit depth : 10 bits( L. {" g, `* ]: H
Bits/(Pixel*Frame) : 0.122
) w- r+ e$ A8 W. ]3 `5 L4 E" SStream size : 12.9 GiB (98%)
5 K  D6 C2 a& e* W- XLanguage : English
$ k  r3 Z# i+ cDefault : Yes4 g. T& n. z  U
Forced : No" R; T* ]4 n" W2 ]! f. h3 ~9 y  f* |
Color range : Limited4 H: w2 k  B' f+ f/ I: ]
Color primaries : BT.20201 Z* F( M3 B3 L, u. h8 `; |
Transfer characteristics : PQ+ u# p$ i0 X$ l) e+ I4 R; }5 d3 ]
Matrix coefficients : BT.2020 non-constant2 y. R) R2 G/ |2 Z" J! f$ F* }& h2 N
Mastering display color primaries : BT.2020  d* k$ ?. A, N# V. z- {, X# e. H; t
Mastering display luminance : min: 0.0050 cd/m2, max: 1000 cd/m2
* `3 }  p0 m8 pMaximum Content Light Level : 1285 cd/m2
1 b" o& n, T7 v( f8 lMaximum Frame-Average Light Level : 1037 cd/m2
+ D# x4 V1 n1 T6 d, j9 y, |" g1 o9 R* _$ [! g; Y0 G! ~4 i8 K* O

5 @$ S, A2 }* I" dAudio1 _" A8 u- c7 R' `* Y
ID : 2* q' b( f8 c' z  O/ I2 ?1 Y% t1 L( J
Format : AC-3
2 H  C5 E; f* ^3 cFormat/Info : Audio Coding 30 }4 }0 h/ [# W3 x" O# n' x. B
Commercial name : Dolby Digital6 x0 d1 t" B# J
Codec ID : A_AC34 _1 y# J% g" X8 B
Duration : 1 h 16 min
. Y" V* _7 K# V" w; |: xBit rate mode : Constant
, z0 i! x  p; s1 A' y3 VBit rate : 384 kb/s+ ?0 q/ w* p0 ^1 }/ D" W( [
Channel(s) : 6 channels
1 K6 _3 E1 ]  r8 E2 [$ g5 [Channel layout : L R C LFE Ls Rs
% w- S( Z) b0 i1 I* M0 w& lSampling rate : 48.0 kHz6 q6 {: _$ U* Y' Z1 u1 p
Frame rate : 31.250 FPS (1536 SPF)
# j; U. n. \- f0 t- n8 tCompression mode : Lossy
; Q1 H0 D7 H* I( ~2 R$ ~Stream size : 210 MiB (2%)
( C/ a' B9 J% M, u) MLanguage : English7 M3 }/ `- h# b- U7 |7 {
Service kind : Complete Main8 M+ ]( }+ t6 C5 U: @# y
Default : Yes7 J# D; E5 ?+ p' y* b/ D; S
Forced : No; [3 E5 C2 }# y3 b5 J1 I. |  p

+ [( j9 j. r/ w1 p- Q5 m! f- e, C6 T
! O' r  B$ m/ X$ Q) m$ j) ^
Text #1$ ]) p- F. Q: {
ID : 3* r1 @) R0 U2 E" S
Format : UTF-8
: v. ?+ e* Q* ECodec ID : S_TEXT/UTF8
. M2 ^9 o, k& MCodec ID/Info : UTF-8 Plain Text
1 t% ?$ q) T) _/ g2 y" HDuration : 1 h 15 min# Q8 y! z( |' V1 f7 d, _
Bit rate : 39 b/s
. k9 ^. g" p" q% BCount of elements : 8162 t$ Y  E2 u/ v% P, m* L+ c
Stream size : 21.8 KiB (0%)
5 A, ~+ m- r$ b9 ~3 R% K' |Title : Traditional6 M* _: ?9 `$ a4 g7 H
Language : Chinese
: Y0 p) ]5 z3 q0 t2 M8 sDefault : No6 Q: v5 H# E, A* C
Forced : No: W) _/ g( M+ f: e: b

1 s: n, A8 Z. y1 u6 G
& P; w4 b4 q( P  K! }
Text #2
, m6 n% \- ~8 \ID : 4" c6 W) [& b8 b2 z7 D
Format : UTF-8
+ h; o1 ~4 Z6 Y' F5 r. k& gCodec ID : S_TEXT/UTF8
: @9 _, d6 G6 B& Z/ W. R1 V9 mCodec ID/Info : UTF-8 Plain Text
7 m1 N" q" A0 y& F' d" TDuration : 1 h 15 min
; R' K' |/ K( k* fBit rate : 45 b/s
! {3 K7 Y0 c- m& L# B; c7 I8 y0 }Count of elements : 6875 i+ d- V" U" D- k
Stream size : 25.3 KiB (0%)
9 V# Z2 f* k- z, W, c: VLanguage : Danish* w* }" B0 ^% e& n3 `$ b
Default : No- M2 I6 D2 ]& n
Forced : No1 N) |" b, J9 `& L* d" M& B3 W

* \; J! r. |: y  b  x
1 V2 _5 t' i: M: n0 E2 \' F/ {% N
Text #36 l( ]2 r' ]/ U
ID : 5
* `, g. i8 ?  U+ L6 n  c6 wFormat : UTF-8+ M3 K! N% F& g' `3 N
Codec ID : S_TEXT/UTF8
& h  Z' d: }+ \9 D, JCodec ID/Info : UTF-8 Plain Text6 X: |9 L2 K) e/ G3 r8 d. H6 J0 j
Duration : 1 h 15 min
! `, r* P3 u* ^" m1 e) F8 ?9 wBit rate : 58 b/s
  J( ~- C; G# S! l& l  ECount of elements : 870( F2 z# ]' g. f: v& ~. h
Stream size : 32.1 KiB (0%)1 R+ A- Z+ o; u, j- B+ C
Title : SDH7 u/ Y& w1 f4 {' O: m
Language : German
( k9 Q; x5 Y6 d# |Default : No
% c8 w' ?1 K  ]5 x8 m8 W0 HForced : No4 B# S/ U3 ^7 l
% {: t+ I7 F, R' W2 o0 o( G

+ w8 w& |/ u2 s- Z# nText #4
3 X7 s( Z3 L4 Q8 o6 h3 X# f$ e4 o" W. CID : 6
) D+ v# Z7 w9 }Format : UTF-8; v1 f4 d5 |# W6 }4 Y
Codec ID : S_TEXT/UTF8: {5 B; F  `) @2 E, E6 h
Codec ID/Info : UTF-8 Plain Text
! S' V2 |4 k7 yDuration : 1 h 14 min
: D8 T  m4 G* T. UBit rate : 49 b/s/ a6 I$ R' ?; H1 X' h7 k' Q
Count of elements : 837
+ p2 I* R: o( ?$ b2 ~Stream size : 27.1 KiB (0%)
1 P* H9 A6 s' Y+ f7 YLanguage : English. d- G0 f9 M3 N( y
Default : No
, ?! U4 Q. m$ F# iForced : No
& t2 X0 o0 [5 B5 `$ M7 Z
( c9 T1 W9 T2 N1 @+ a& v& k4 {( k' F

! t9 _9 n6 d% Z4 L# p: ?5 w( UText #5
( w& b, g, b8 ~7 d- y4 Z1 |' ?ID : 7( K( m/ A* F! e# q4 r0 ~* ~/ i2 G
Format : UTF-8
- w5 }4 L+ Y- k! {. fCodec ID : S_TEXT/UTF8. i! V9 I* t; Q; d  T
Codec ID/Info : UTF-8 Plain Text
% z. p1 {6 u% o1 \6 K: E5 [. CDuration : 1 h 15 min+ P9 X( }; M" N/ U! U4 m6 {+ M6 e
Bit rate : 57 b/s+ h5 F4 x0 Z5 i( C) }
Count of elements : 10888 \7 L  V" B" S1 b6 m# i
Stream size : 32.0 KiB (0%). F) Q; n- P% a
Title : SDH2 T4 }/ \" L$ J
Language : English
2 [+ g' I) E2 m) SDefault : No: Q+ T1 i2 F5 n
Forced : No  o" J/ i& H5 c& ^2 L

, w3 D' a$ D/ O/ T1 z1 \0 ?, c
% l2 G7 P% z( M1 Z
Text #6& W# I1 F4 m, ^+ ~: ?) y
ID : 83 f0 q* f8 R  T' j( P, k: u
Format : UTF-8' S; a5 P. v( `; t# O: B
Codec ID : S_TEXT/UTF8  O5 t! {) @6 B7 S, u& o" d+ y# }
Codec ID/Info : UTF-8 Plain Text- O# B, U  v, P* u* x2 p
Duration : 1 h 15 min
$ X) G) F! x# GBit rate : 50 b/s% S$ a3 ^$ ?2 p0 K5 o- S' K) ~1 \! |
Count of elements : 751" s- ^6 B* v7 K! U6 H$ e
Stream size : 27.6 KiB (0%)
* Y$ o+ Y; {4 Q7 d/ OTitle : Latin American
2 Z  ?) z; _; x3 kLanguage : Spanish3 n1 p5 C) H* N/ A- B
Default : No
" l; a& e- Q) @6 ~Forced : No
( U  B- l) T6 d' Z: _/ y. a3 w+ K4 ~' D+ e, C
4 ?8 a$ l* N  h: n$ a/ l
Text #7
! s4 t. s( ]. }* N4 J; u' I2 VID : 9
0 [' b+ n' w* L! `Format : UTF-8- t! p5 |( G& \& u
Codec ID : S_TEXT/UTF8
7 T. k2 y8 H7 l; X+ V! n4 D/ h- [Codec ID/Info : UTF-8 Plain Text
% p' t1 ?  |; G" V% J- n& l$ Y6 uDuration : 1 h 15 min7 P5 Z7 P& p5 u) d# x
Bit rate : 48 b/s8 k7 l6 W6 ~+ @( g8 G5 Z
Count of elements : 7246 ?2 J2 f7 @: ^0 f; d% d* P
Stream size : 26.8 KiB (0%)
; W. R" e# [; q# TLanguage : Finnish. j- r! u. q, g. M" ^' X
Default : No
% c1 \" L) ~, k. V  B6 A" RForced : No( F1 a! v: \5 k  `
) Z( O% K9 @3 r  i* Y. C  C1 p1 w
- V; s/ T$ s; s5 X9 k
Text #8
; e7 y0 J% s+ F% y2 G3 }ID : 10
- X4 l" I" L* X9 J  R( V2 AFormat : UTF-85 y9 O8 A8 `' E3 Q4 ^
Codec ID : S_TEXT/UTF89 A# J6 n9 i0 w8 f9 P8 \0 m
Codec ID/Info : UTF-8 Plain Text; f4 s1 e" I) E1 N6 E
Duration : 1 h 15 min
4 {( |0 C' Y2 v: TBit rate : 59 b/s
& r# l0 j: |& k6 F4 LCount of elements : 784. \& b+ D! W. v- D
Stream size : 32.8 KiB (0%)
9 l% n% J  e+ w0 a+ u! ]Language : French
: w5 ]) j  z% F7 s$ ~0 xDefault : No
) U1 f3 b; `( {2 m* GForced : No
- c, L& [+ z8 d, H$ v6 V9 L7 t- `7 b/ E8 v

0 [8 C" a  U: [0 R! Z2 d# TText #9
( I5 Q: w" X4 ]  b7 Y* [0 C% m& u; KID : 11
2 a% ?0 z! A1 s  J6 ]Format : UTF-8( e5 V( O$ O( h' F8 X3 |
Codec ID : S_TEXT/UTF8
+ D+ m3 T$ Y1 G( n! kCodec ID/Info : UTF-8 Plain Text% z$ L' r  V4 u4 F2 p- b
Duration : 1 h 15 min
5 ?/ x$ P$ R6 z- A4 }3 a4 M- v4 }Bit rate : 75 b/s
4 ?5 N0 }+ S) j) hCount of elements : 816
( u' O( w& u4 a5 uStream size : 42.0 KiB (0%)5 x6 F: {/ P5 `8 i' P2 C
Language : Hebrew' ?4 S( ~# j' s3 U9 z2 Z. w: Q( @9 ^
Default : No3 r* W, [; |5 V, J
Forced : No
8 p# \! u/ l7 E4 Q1 x( C+ ~- }. A) |& z9 j. `
0 T' D; q4 A# J
Text #10
1 W  {' e! Z- T: h9 d  l% _. HID : 12
, {/ \/ W4 M, Z" r7 SFormat : UTF-84 j4 Y; N0 r! C! ~5 ~' `
Codec ID : S_TEXT/UTF8
! `' ]4 A' j& O; W- V4 [9 kCodec ID/Info : UTF-8 Plain Text
1 I3 V7 X; G' O/ X; LDuration : 1 h 15 min
6 C9 \& v+ ^+ q% ]) [0 H4 GBit rate : 51 b/s* G$ t3 w$ {) ~2 X0 ^
Count of elements : 7460 l8 |4 p( H2 D
Stream size : 28.6 KiB (0%): W2 z7 z  ?- o9 e. d
Language : Dutch4 E- D4 z4 `! G+ R! N: g! A: R
Default : No
1 I; f% z4 d3 j! E$ JForced : No7 p) o' D& |% g' ^) _* U0 w- I
9 V3 [! ^. B8 Y; b' q6 d3 X2 t
  `# D, _6 Y( r/ D: p5 K8 p
Text #11
. a" L: M* F" O4 t& RID : 137 t$ T; W  w$ f
Format : UTF-8+ \' y! F& q4 C5 P, f1 [! X
Codec ID : S_TEXT/UTF8# Z/ c4 [# v  A; @* `! c) I# ^5 F6 M' P
Codec ID/Info : UTF-8 Plain Text
+ F% m6 }, `1 r6 H8 w6 ]( l) gDuration : 1 h 15 min
) @! M+ c, }  o6 H/ B. OBit rate : 44 b/s
9 m( p! O4 O1 ~Count of elements : 698( m5 t) b9 K! J1 ^& t; f
Stream size : 24.5 KiB (0%)
, h% Y8 f0 T' e7 z$ L* QLanguage : Norwegian
2 |6 G' ?( @7 S6 \: m( F/ DDefault : No% ?. s0 E0 M6 V
Forced : No
. J* b2 F4 h5 e/ _* e( N, w8 D9 _! F6 O  ~$ A: B
, l% _. j, a5 w- Y" w
Text #12
0 ?% x# A( u- F- F) ?ID : 14
5 {$ K2 {; z% ^1 v; ]0 C9 eFormat : UTF-8
( t& E; d: ^2 i, U9 aCodec ID : S_TEXT/UTF8
* e2 L. D( W' M" I& D+ xCodec ID/Info : UTF-8 Plain Text8 I8 a) B  a9 ?' F% H! d2 d
Duration : 1 h 15 min0 T) s7 i" e2 S5 ?
Bit rate : 45 b/s0 @3 @: W& K- c! K* H& L9 t$ A
Count of elements : 720% E( Q% k" Z! N- Y8 ^" Q' |
Stream size : 25.1 KiB (0%)$ ?) u7 U1 R  Z, ?# V* J: |
Title : Brazilian. P) q* _; h  ?. c% Q
Language : Portuguese" T; v3 k1 i$ v
Default : No# W# K8 l. ?1 x/ f9 n4 P
Forced : No
9 D% h  U7 M/ W0 D4 F" k. q8 q6 g+ o# _# b

1 }$ @5 |9 j* w- O. x8 C! NText #13
( A0 A  m! D6 {" F7 EID : 15' Z) a7 ~  q9 W* X+ K
Format : UTF-8
- F. l  x+ A" T  P0 r, qCodec ID : S_TEXT/UTF83 r7 O0 r* h7 ^" `" E& X" N
Codec ID/Info : UTF-8 Plain Text2 i& Q0 m+ _# {7 ]8 u
Duration : 1 h 15 min8 ^. a$ _" Y! w) D9 [- d$ n: e
Bit rate : 46 b/s% v0 _% I. p( z6 {8 d/ S6 G: W% K
Count of elements : 7129 D) a2 {6 n' x, {
Stream size : 25.9 KiB (0%)
' ~2 X0 u3 z: f$ ]$ t5 W+ |Language : Swedish
  r, T4 @% K9 ]9 s# IDefault : No
; ~* P- C0 P8 K" r9 }Forced : No' A( n2 b# J; P6 [" r4 m

, y# D7 e0 r0 p) r) P1 u

7 I1 f7 N! l/ a4 p3 \/ |; OMenu
/ B2 B* i1 H; N: J00:00:00.000 : en:Chapter 1
! H  ?% ~: i* o; j3 W6 O00:04:40.572 : en:Chapter 2- h! I! Y2 u% i/ T' B
00:09:58.181 : en:Chapter 3) q  b3 L  d& b& ^- B
00:15:03.278 : en:Chapter 4
$ s1 f+ F- r& ~6 l00:18:54.509 : en:Chapter 5' s+ g. t* x6 Z. ?7 _& i1 ?
00:24:48.279 : en:Chapter 6
/ L) f' y, ~9 T- i) e4 Z% B& R00:27:38.533 : en:Chapter 7
3 t4 \, ~, N( b2 C" C; [8 R) W00:32:20.774 : en:Chapter 8
9 r4 _7 z- M3 ?7 M0 q! P2 a; n00:37:06.226 : en:Chapter 9
' ^! J  x$ K; n6 H00:44:52.400 : en:Chapter 10: S2 K0 R) ~. O' j: p9 g& V
00:49:50.448 : en:Chapter 11
9 b5 d) j7 A% n6 s% ^$ q00:53:39.844 : en:Chapter 12
, i* w' f& t) K6 y' B( z; D00:58:18.540 : en:Chapter 13
- k  v6 C" Q2 q. w9 V4 v01:02:25.829 : en:Chapter 14
4 `" w7 d4 i" f, G3 w: L01:07:28.214 : en:Chapter 15
$ D5 v6 t2 p1 V  F" I, [01:12:00.862 : en:Chapter 16

' ^* d; U. N. B' I+ m9 T
. [$ E. _- V& X5 P1 W2 `1 |蓝光高清网提示您 点击下方附件名称 即可开始下载& f# A2 |7 m, G" |1 _
  o$ b* s7 u6 m. v) [
: n5 t2 P* l; c& y- @
多版本下载时请注意区分
9 a6 y1 A" y* Q5 S4 m9 A3 Y1 N! p+ l6 K2 i8 h7 D( d+ }# b

, ]& T7 z  [9 hDC Showcase – Constantine: House of Mystery / DC展台:康斯坦丁/康斯坦丁:神秘之所4k.DC.Showcase.Constantine.The.House.of.Mystery.2022.2160p.iT.WEB-DL.x265.10bit.HDR.DD5.1-4k电影下载
3 y/ r  @0 a# m+ o0 O, Y, K- `6 D" u2 @  X) ~8 O
康斯坦丁:神秘之所4k.DC.Showcase.Constantine.The.House.of.Mystery.2022.2160p.iT.WEB-DL.x265.10bit.HDR.DD5.1【4k HDR 13.14 GB】
8 x9 {' W9 [0 |) L2 n6 X; N% O

康斯坦丁:神秘之所4k.DC.Showcase.Constantine.The.House.of.Mystery.2022.2160p.iT.WEB-DL.x265.10bit.HDR.DD5.1-SMURF.torrent ( 17.12 KB )


' K- c5 R* H! P6 _
) f- q9 }- j/ G5 Q: C+ q康斯坦丁:神秘之所4k.DC.Showcase.Constantine.The.House.of.Mystery.2022.2160p.iT.WEB-DL.x265.10bit.SDR.DD5.1【4k SDR 6.48 GB】
; f! T6 f# F: W& j: j8 P$ m/ \. B

康斯坦丁:神秘之所4k.DC.Showcase.Constantine.The.House.of.Mystery.2022.2160p.iT.WEB-DL.x265.10bit.SDR.DD5.1-SMURF.torrent ( 16.9 KB )


+ B" k& A! h, `$ @; y7 _0 e
- l1 N3 N* o' Y& e" O6 j; U康斯坦丁:神秘之所4k.DC.Showcase.Constantine.The.House.of.Mystery.2022.2160p.iT.WEB-DL.DD5.1.DV.MP4.x265-【4k 杜比视界 13.10 GB】
" \8 Z) g9 \7 H

康斯坦丁:神秘之所4k.DC.Showcase.Constantine.The.House.of.Mystery.2022.2160p.iT.WEB-DL.DD5.1.DV.MP4.x265-DVSUX.torrent ( 17.08 KB )

; `$ g# s0 e+ k$ c9 u; k: M/ X
3 y7 z% y0 U) B; N) F% R
康斯坦丁:神秘之所4k.DC.Showcase.Constantine.The.House.of.Mystery.2022.2160p.iT.WEB-DL.DD5.1.DV.MKV.x265【4k 杜比视界  13.10 GB】
$ Q& T4 t* u& e0 h4 i9 @

康斯坦丁:神秘之所4k.DC.Showcase.Constantine.The.House.of.Mystery.2022.2160p.iT.WEB-DL.DD5.1.DV.MKV.x265-SMURF.torrent ( 17.08 KB )

! o9 u& d) F, _& b3 I) `# {

$ i' s% O6 a# x$ i$ q* l
加入蓝光高清网VIP会员  无限制下载本站所有资源---点这里

资源下载、资源播放、字幕使用、无法下载等常见问题---点这里
回复

使用道具 举报

全部回复1 显示全部楼层
PCHUN 发表于 7 天前 | 显示全部楼层
謝謝樓主分享
回复 支持 反对

使用道具 举报

发表回复

您需要登录后才可以回帖 登录 | 立即注册

本版积分规则

联系客服 关注微信 下载APP 返回顶部 返回列表