蓝光高清网

搜索
开启左侧

永恒使命 4k.The.Quest.2022.S01.2160p.DSNP.WEB-DL.x265.10bit.HDR.DDP5.1-4k电影下载-39.24 GB

蓝鸟 发表于 7 天前 | 显示全部楼层 |阅读模式
永恒使命 豆瓣评分: 无评分

状态:第一季(完结)
上映时间:2022-05-11
类型:奇幻 冒险 真人秀 
地区:美国
导演:未知
主演:Mel Mehrabian / Elliott Ross / 艾米莉·盖特里 / Harry Aspinwall / Kerwin Thompson
画质标准:4K(3840x2160) 封装音轨:5.1声道 音轨编码:其他DD
剧情简介
  一个开创性的沉浸式竞赛系列,将 8 名年轻人带入梦幻般的虚构世界 Everrealm,他们必须通过实现一个古老的预言来拯救一个王国....
影片参数
永恒使命4k.The.Quest.2022.S01.2160p.DSNP.WEB-DL.x265.10bit.HDR.DDP5.1-4k电影信息
Video
ID : 1
Format : HEVC
Format/Info : High Efficiency Video Coding
Format profile : Main 10@L5@High
HDR format : SMPTE ST 2086, HDR10 compatible
Codec ID : V_MPEGH/ISO/HEVC
Duration : 45 min 24 s
Bit rate : 16.2 Mb/s
Width : 3 840 pixels
Height : 2 160 pixels
Display aspect ratio : 16:9
Frame rate mode : Constant
Frame rate : 23.976 (24000/1001) FPS
Color space : YUV
Chroma subsampling : 4:2:0
Bit depth : 10 bits
Bits/(Pixel*Frame) : 0.082
Stream size : 5.14 GiB (98%)
Language : English
Default : Yes
Forced : No
Color range : Limited
Color primaries : BT.2020
Transfer characteristics : PQ
Matrix coefficients : BT.2020 non-constant
Mastering display color primaries : Display P3
Mastering display luminance : min: 0.0010 cd/m2, max: 1000 cd/m2


Text #22
ID : 24
Format : UTF-8
Codec ID : S_TEXT/UTF8
Codec ID/Info : UTF-8 Plain Text
Duration : 45 min 19 s
Bit rate : 60 b/s
Count of elements : 580
Stream size : 20.1 KiB (0%)
Title : Türkçe
Language : Turkish
Default : No
Forced : No


Text #23
ID : 25
Format : UTF-8
Codec ID : S_TEXT/UTF8
Codec ID/Info : UTF-8 Plain Text
Duration : 45 min 15 s
Bit rate : 53 b/s
Count of elements : 581
Stream size : 17.8 KiB (0%)
Title : Chinese (Hong Kong)
Language : Chinese
Default : No
Forced : No


Text #24
ID : 26
Format : UTF-8
Codec ID : S_TEXT/UTF8
Codec ID/Info : UTF-8 Plain Text
Duration : 45 min 15 s
Bit rate : 53 b/s
Count of elements : 581
Stream size : 17.8 KiB (0%)
Title : Chinese (Traditional)
Language : Chinese
Default : No
Forced : No


Text #25
ID : 27
Format : UTF-8
Codec ID : S_TEXT/UTF8
Codec ID/Info : UTF-8 Plain Text
Duration : 45 min 19 s
Bit rate : 51 b/s
Count of elements : 581
Stream size : 17.2 KiB (0%)
Title : Chinese (Simplified)
Language : Chinese
Default : No
Forced : No


蓝光高清网提示您 点击下方附件名称 即可开始下载


多版本下载时请注意区分


永恒使命4k.The.Quest.2022.S01.2160p.DSNP.WEB-DL.x265.10bit.HDR.DDP5.1-4k电影下载

永恒使命4k.The.Quest.2022.S01.2160p.DSNP.WEB-DL.x265.10bit.HDR.DDP5.1自带简繁中字【4k HDR 39.24 GB】

永恒使命4k.The.Quest.2022.S01.2160p.DSNP.WEB-DL.x265.10bit.HDR.DDP5.1-KOGi.torrent ( 50.26 KB )



永恒使命4k.The.Quest.2022.S01.2160p.DSNP.WEB-DL.DDP5.1.DV.MP4.x265【4k 杜比视界 39.45 GB】

永恒使命4k.The.Quest.2022.S01.2160p.DSNP.WEB-DL.DDP5.1.DV.MP4.x265-DVSUX.torrent ( 50.66 KB )



永恒使命4k.The.Quest.2022.S01.2160p.DSNP.WEB-DL.DDP5.1.DV.MKV.x265【4k 杜比视界 39.45GB】

永恒使命4k.The.Quest.2022.S01.2160p.DSNP.WEB-DL.DDP5.1.DV.MKV.x265-KOGi.torrent ( 50.5 KB )


加入蓝光高清网VIP会员  无限制下载本站所有资源---点这里

资源下载、资源播放、字幕使用、无法下载等常见问题---点这里
回复

使用道具 举报

全部回复1 显示全部楼层
asd8250981rzx手机认证 发表于 前天 21:26 | 显示全部楼层
好看好看谢谢楼主
回复 支持 反对

使用道具 举报

发表回复

您需要登录后才可以回帖 登录 | 立即注册

本版积分规则

联系客服 关注微信 下载APP 返回顶部 返回列表