蓝光高清网

搜索
开启左侧

[动作] 飞刀武士 Knives.of.the.Avenger.1966.ITALIAN.1080p.BluRay.x264.DTS-FGT 7.79GB

蓝鸟 发表于 5 天前 | 显示全部楼层 |阅读模式

飞刀武士 Knives.of.the.Avenger.1966.ITALIAN.1080p.BluRay.x264.DTS-FGT 7.79GB

飞刀武士 Knives.of.the.Avenger.1966.ITALIAN.1080p.BluRay.x264.DTS-FGT 7.79GB


译  名 飞刀武士 / Knives of the Avenger
片  名 I coltelli del vendicatore
年  代 1966
产  地 意大利
类  别 动作 / 冒险
语  言 意大利语
上映日期 1966-05-30
片  长 85 分钟
导  演 马里奥·巴瓦 Mario Bava
编  剧 马里奥·巴瓦 Mario Bava
       乔治·西莫内利 Giorgio Simonelli
演  员 卡梅隆·米切尔 Cameron Mitchell
       福斯托·托齐 Fausto Tozzi
       吉雅科莫·罗西·斯图尔特 Giacomo Rossi-Stuart
       Goffredo Unger Goffredo Unger
       阿梅代奥·特里利 Amedeo Trilli
       Marcello Giombini Marcello Giombini
       马里奥·巴瓦 Mario Bava
       Alberto Tavazzi Alberto Tavazzi
       皮耶罗·菲利波内 Piero Filippone

简  介

A mysterious knife-throwing viking warrior protects a young peasant woman and her young son from the clutches of a evil regent bent on claiming the title of king and the woman for himself.


影片参数
  1. Video
  2. ID                                       : 1
  3. Format                                   : AVC
  4. Format/Info                              : Advanced Video Codec
  5. Format profile                           : [email protected]
  6. Format settings                          : CABAC / 4 Ref Frames
  7. Format settings, CABAC                   : Yes
  8. Format settings, Reference frames        : 4 frames
  9. Codec ID                                 : V_MPEG4/ISO/AVC
  10. Duration                                 : 1 h 24 min
  11. Bit rate                                 : 11.5 Mb/s
  12. Width                                    : 1 904 pixels
  13. Height                                   : 808 pixels
  14. Display aspect ratio                     : 2.35:1
  15. Frame rate mode                          : Constant
  16. Frame rate                               : 24.000 FPS
  17. Color space                              : YUV
  18. Chroma subsampling                       : 4:2:0
  19. Bit depth                                : 8 bits
  20. Scan type                                : Progressive
  21. Bits/(Pixel*Frame)                       : 0.311
  22. Stream size                              : 6.77 GiB (87%)
  23. Writing library                          : x264 core 148 r2748 97eaef2
  24. Encoding settings                        : cabac=1 / ref=4 / deblock=1:-2:-2 / analyse=0x3:0x113 / me=umh / subme=9 / psy=1 / psy_rd=1.00:0.15 / mixed_ref=1 / me_range=16 / chroma_me=1 / trellis=2 / 8x8dct=1 / cqm=0 / deadzone=21,11 / fast_pskip=1 / chroma_qp_offset=-3 / threads=72 / lookahead_threads=3 / sliced_threads=0 / nr=0 / decimate=1 / interlaced=0 / bluray_compat=0 / constrained_intra=0 / bframes=3 / b_pyramid=2 / b_adapt=1 / b_bias=0 / direct=3 / weightb=1 / open_gop=0 / weightp=2 / keyint=250 / keyint_min=25 / scenecut=40 / intra_refresh=0 / rc_lookahead=50 / rc=2pass / mbtree=1 / bitrate=11500 / ratetol=1.0 / qcomp=0.60 / qpmin=0 / qpmax=69 / qpstep=4 / cplxblur=20.0 / qblur=0.5 / vbv_maxrate=31250 / vbv_bufsize=31250 / nal_hrd=none / filler=0 / ip_ratio=1.40 / aq=1:1.00
  25. Language                                 : Italian
  26. Default                                  : Yes
  27. Forced                                   : No
  28. Audio #1
  29. ID                                       : 2
  30. Format                                   : DTS
  31. Format/Info                              : Digital Theater Systems
  32. Codec ID                                 : A_DTS
  33. Duration                                 : 1 h 24 min
  34. Bit rate mode                            : Constant
  35. Bit rate                                 : 1 509 kb/s
  36. Channel(s)                               : 2 channels
  37. Channel layout                           : L R
  38. Sampling rate                            : 48.0 kHz
  39. Frame rate                               : 93.750 FPS (512 SPF)
  40. Bit depth                                : 16 bits
  41. Compression mode                         : Lossy
  42. Stream size                              : 910 MiB (11%)
  43. Language                                 : Italian
  44. Default                                  : Yes
  45. Forced                                   : No
  46. Audio #2
  47. ID                                       : 3
  48. ID in the original source medium         : 4353 (0x1101)
  49. Format                                   : AC-3
  50. Format/Info                              : Audio Coding 3
  51. Commercial name                          : Dolby Digital
  52. Codec ID                                 : A_AC3
  53. Duration                                 : 1 h 24 min
  54. Bit rate mode                            : Constant
  55. Bit rate                                 : 224 kb/s
  56. Channel(s)                               : 2 channels
  57. Channel layout                           : L R
  58. Sampling rate                            : 48.0 kHz
  59. Frame rate                               : 31.250 FPS (1536 SPF)
  60. Compression mode                         : Lossy
  61. Stream size                              : 135 MiB (2%)
  62. Title                                    : Stereo
  63. Language                                 : English
  64. Service kind                             : Complete Main
  65. Default                                  : No
  66. Forced                                   : No
  67. Original source medium                   : Blu-ray
  68. Text
  69. ID                                       : 4
  70. Format                                   : UTF-8
  71. Codec ID                                 : S_TEXT/UTF8
  72. Codec ID/Info                            : UTF-8 Plain Text
  73. Duration                                 : 1 h 24 min
  74. Bit rate                                 : 32 b/s
  75. Count of elements                        : 515
  76. Stream size                              : 19.9 KiB (0%)
  77. Language                                 : English
  78. Default                                  : Yes
  79. Forced                                   : No
  80. Menu
  81. 00:00:00.000                             : en:Chapter 01
  82. 00:10:32.875                             : en:Chapter 02
  83. 00:22:25.291                             : en:Chapter 03
  84. 00:36:34.791                             : en:Chapter 04
  85. 00:43:01.166                             : en:Chapter 05
  86. 00:50:58.375                             : en:Chapter 06
  87. 00:57:01.083                             : en:Chapter 07
  88. 01:14:53.750                             : en:Chapter 08
复制代码

飞刀武士 Knives.of.the.Avenger.1966.ITALIAN.1080p.BluRay.x264.DTS-FGT 7.79GB

飞刀武士 Knives.of.the.Avenger.1966.ITALIAN.1080p.BluRay.x264.DTS-FGT 7.79GB

飞刀武士 Knives.of.the.Avenger.1966.ITALIAN.1080p.BluRay.x264.DTS-FGT 7.79GB

飞刀武士 Knives.of.the.Avenger.1966.ITALIAN.1080p.BluRay.x264.DTS-FGT 7.79GB



蓝光高清网提示您 点击下方附件即可下载

飞刀武士 Knives.of.the.Avenger.1966.ITALIAN.1080p.BluRay.x264.DTS-FGT 7.79GB

Knives.of.the.Avenger.1966.ITALIAN.1080p.BluRay.x264.DTS-FGT.torrent ( 20.13 KB )

加入蓝光高清网VIP会员  无限制下载本站所有资源---点这里

资源下载、资源播放、字幕使用、无法下载等常见问题---点这里
回复

使用道具 举报

全部回复0 显示全部楼层

发表回复

您需要登录后才可以回帖 登录 | 立即注册

本版积分规则

联系客服 关注微信 下载APP 返回顶部 返回列表