蓝光高清网

搜索
开启左侧

[悬疑] 白衣幽魂 Lady.In.White.1988.THEATRiCAL.1080p.BluRay.x264-GUACAMOLE 11.50GB

蓝鸟 发表于 5 天前 | 显示全部楼层 |阅读模式

白衣幽魂 Lady.In.White.1988.THEATRiCAL.1080p.BluRay.x264-GUACAMOLE 11.50GB

白衣幽魂 Lady.In.White.1988.THEATRiCAL.1080p.BluRay.x264-GUACAMOLE 11.50GB


译  名 白衣幽魂 / 白书警魂
片  名 Lady in White
年  代 1988
产  地 美国
类  别 悬疑 / 惊悚 / 恐怖 / 奇幻
语  言 英语 / 意大利语
上映日期 1988-04-22
豆瓣评分 6.4/10 (58人评价)
片  长 112 分钟
导  演 弗兰克·拉洛贾 Frank LaLoggia
编  剧 弗兰克·拉洛贾 Frank LaLoggia
演  员 卢卡斯·哈斯 Lukas Haas
       兰·卡琉 Len Cariou
       阿历克斯·罗克 Alex Rocco
       凯瑟琳·海蒙德 Katherine Helmond
       杰森·普雷森 Jason Presson
       杰瑞德·拉什顿 Jared Rushton
       汤姆·鲍尔 Tom Bower
       布鲁斯·柯比 Bruce Kirby
       丽莎·泰勒 Lisa Taylor
       Steve Mann Steve Mann
       林恩·斯塔马斯特 Lynn Stalmaster
       Peter Chesney Peter Chesney
       Ernest D. Farino Ernest D. Farino
       Ernest D. Farino Ernest D. Farino
       David Fiske David Fiske
       小吉恩·沃伦 Gene Warren Jr.

简  介

An author tells the story of how, as a young boy growing up in a 1960s small town, he was haunted after witnessing the murder of a little girl.


影片参数
  1. Video
  2. ID                                       : 1
  3. Format                                   : AVC
  4. Format/Info                              : Advanced Video Codec
  5. Format profile                           : [email protected]
  6. Format settings                          : CABAC / 4 Ref Frames
  7. Format settings, CABAC                   : Yes
  8. Format settings, Reference frames        : 4 frames
  9. Codec ID                                 : V_MPEG4/ISO/AVC
  10. Duration                                 : 1 h 53 min
  11. Bit rate                                 : 13.9 Mb/s
  12. Width                                    : 1 920 pixels
  13. Height                                   : 1 040 pixels
  14. Display aspect ratio                     : 1.85:1
  15. Frame rate mode                          : Constant
  16. Frame rate                               : 23.976 (24000/1001/189150) FPS
  17. Color space                              : YUV
  18. Chroma subsampling                       : 4:2:0
  19. Bit depth                                : 8 bits
  20. Scan type                                : Progressive
  21. Bits/(Pixel*Frame)                       : 0.291
  22. Stream size                              : 11.1 GiB (96%)
  23. Writing library                          : x264 core 164 r3094 bfc87b7
  24. Encoding settings                        : cabac=1 / ref=4 / deblock=1:-3:-3 / analyse=0x3:0x133 / me=umh / subme=9 / psy=1 / psy_rd=1.00:0.00 / mixed_ref=1 / me_range=16 / chroma_me=1 / trellis=2 / 8x8dct=1 / cqm=0 / deadzone=21,11 / fast_pskip=0 / chroma_qp_offset=-2 / threads=24 / lookahead_threads=2 / sliced_threads=0 / nr=0 / decimate=1 / interlaced=0 / bluray_compat=0 / constrained_intra=0 / bframes=3 / b_pyramid=2 / b_adapt=2 / b_bias=0 / direct=3 / weightb=1 / open_gop=0 / weightp=2 / keyint=250 / keyint_min=23 / scenecut=40 / intra_refresh=0 / rc_lookahead=60 / rc=crf / mbtree=1 / crf=18.0 / qcomp=0.60 / qpmin=0 / qpmax=69 / qpstep=4 / ip_ratio=1.40 / aq=3:0.60
  25. Default                                  : Yes
  26. Forced                                   : No
  27. Color range                              : Limited
  28. Matrix coefficients                      : BT.709

  29. Audio
  30. ID                                       : 2
  31. Format                                   : FLAC
  32. Format/Info                              : Free Lossless Audio Codec
  33. Codec ID                                 : A_FLAC
  34. Duration                                 : 1 h 53 min
  35. Bit rate mode                            : Variable
  36. Bit rate                                 : 552 kb/s
  37. Channel(s)                               : 2 channels
  38. Channel layout                           : L R
  39. Sampling rate                            : 48.0 kHz
  40. Frame rate                               : 11.719 FPS (4096 SPF)
  41. Bit depth                                : 16 bits
  42. Compression mode                         : Lossless
  43. Stream size                              : 448 MiB (4%)
  44. Writing library                          : libFLAC 1.2.1 (UTC 2007-09-17)
  45. Language                                 : English
  46. Default                                  : Yes
  47. Forced                                   : No

  48. Text #1
  49. ID                                       : 3
  50. Format                                   : PGS
  51. Muxing mode                              : zlib
  52. Codec ID                                 : S_HDMV/PGS
  53. Codec ID/Info                            : Picture based subtitle format used on BDs/HD-DVDs
  54. Duration                                 : 1 h 46 min
  55. Bit rate                                 : 19.9 kb/s
  56. Count of elements                        : 1628
  57. Stream size                              : 15.2 MiB (0%)
  58. Language                                 : English
  59. Default                                  : No
  60. Forced                                   : No

  61. Text #2
  62. ID                                       : 4
  63. Format                                   : PGS
  64. Muxing mode                              : zlib
  65. Codec ID                                 : S_HDMV/PGS
  66. Codec ID/Info                            : Picture based subtitle format used on BDs/HD-DVDs
  67. Duration                                 : 1 h 46 min
  68. Bit rate                                 : 21.9 kb/s
  69. Count of elements                        : 1630
  70. Stream size                              : 16.8 MiB (0%)
  71. Language                                 : German
  72. Default                                  : No
  73. Forced                                   : No

  74. Menu
  75. 00:00:00.000                             : 00:00:00.000
  76. 00:07:45.924                             : 00:07:45.924
  77. 00:16:37.622                             : 00:16:37.622
  78. 00:23:04.592                             : 00:23:04.592
  79. 00:34:41.871                             : 00:34:41.871
  80. 00:43:45.790                             : 00:43:45.790
  81. 00:47:56.457                             : 00:47:56.457
  82. 00:54:08.245                             : 00:54:08.245
  83. 01:00:56.403                             : 01:00:56.403
  84. 01:06:08.715                             : 01:06:08.715
  85. 01:15:33.195                             : 01:15:33.195
  86. 01:23:16.116                             : 01:23:16.116
  87. 01:28:42.567                             : 01:28:42.567
  88. 01:36:47.135                             : 01:36:47.135
  89. 01:43:35.459                             : 01:43:35.459
  90. 01:49:08.667                             : 01:49:08.667
复制代码

白衣幽魂 Lady.In.White.1988.THEATRiCAL.1080p.BluRay.x264-GUACAMOLE 11.50GB

白衣幽魂 Lady.In.White.1988.THEATRiCAL.1080p.BluRay.x264-GUACAMOLE 11.50GB



蓝光高清网提示您 点击下方附件即可下载

白衣幽魂 Lady.In.White.1988.THEATRiCAL.1080p.BluRay.x264-GUACAMOLE 11.50GB

Lady.In.White.1988.THEATRiCAL.1080p.BluRay.x264-GUACAMOLE.torrent ( 15.1 KB )

加入蓝光高清网VIP会员  无限制下载本站所有资源---点这里

资源下载、资源播放、字幕使用、无法下载等常见问题---点这里
回复

使用道具 举报

全部回复0 显示全部楼层

发表回复

您需要登录后才可以回帖 登录 | 立即注册

本版积分规则

联系客服 关注微信 下载APP 返回顶部 返回列表