蓝光高清网

搜索
开启左侧

邪恶异象 / 恶/邪恶 第三季4k.Evil.S03E01.HDR.2160p.WEB.H265-4k美剧下载

蓝鸟 发表于 2022-6-15 11:38:34 | 显示全部楼层 |阅读模式
邪恶 豆瓣评分: 无评分

状态:第三季(更新至第1集 共13集)
上映时间:2022-06-12
类型:剧情 惊悚 恐怖 犯罪 悬疑 
地区:美国
导演:罗伯特·金
主演:卡佳·赫尔伯斯 / 麦克·柯尔特 / 阿西夫·曼德维 / 迈克尔·爱默生 / 克里斯汀·拉蒂
画质标准:4K(3840x2160) 封装音轨:5.1声道 音轨编码:其他DD
剧情简介
  Paramount+续订《邪恶》第三季....
影片参数
邪恶异象 / 恶/邪恶 第三季4k.Evil.S03E01.HDR.2160p.WEB.H265-4k美剧信息
Video
ID : 1
Format : HEVC
Format/Info : High Efficiency Video Coding
Format profile : Main 10@L5@High
HDR format : SMPTE ST 2086, HDR10 compatible
Codec ID : V_MPEGH/ISO/HEVC
Duration : 48 min 1 s
Bit rate : 14.2 Mb/s
Width : 3 840 pixels
Height : 2 160 pixels
Display aspect ratio : 16:9
Frame rate mode : Constant
Frame rate : 23.976 (24000/1001) FPS
Color space : YUV
Chroma subsampling : 4:2:0 (Type 2)
Bit depth : 10 bits
Bits/(Pixel*Frame) : 0.071
Stream size : 4.75 GiB (95%)
Language : English
Default : Yes
Forced : No
Color range : Limited
Color primaries : BT.2020
Transfer characteristics : PQ
Matrix coefficients : BT.2020 non-constant
Mastering display color primaries : Display P3
Mastering display luminance : min: 0.0050 cd/m2, max: 1000 cd/m2
Maximum Content Light Level : 428 cd/m2
Maximum Frame-Average Light Level : 90 cd/m2


Audio
ID : 2
Format : AC-3
Format/Info : Audio Coding 3
Commercial name : Dolby Digital
Codec ID : A_AC3
Duration : 48 min 1 s
Bit rate mode : Constant
Bit rate : 384 kb/s
Channel(s) : 6 channels
Channel layout : L R C LFE Ls Rs
Sampling rate : 48.0 kHz
Frame rate : 31.250 FPS (1536 SPF)
Compression mode : Lossy
Stream size : 132 MiB (3%)
Language : English
Service kind : Complete Main
Default : Yes
Forced : No


Text
ID : 3
Format : UTF-8
Codec ID : S_TEXT/UTF8
Codec ID/Info : UTF-8 Plain Text
Title : English
Language : English
Default : No
Forced : No



蓝光高清网提示您 点击下方附件名称 即可开始下载


多版本下载时请注意区分


邪恶异象 / 恶/邪恶 第三季4k.Evil.S03E01.HDR.2160p.WEB.H265-4k美剧下载

邪恶 第三季4k.Evil.S03E01.HDR.2160p.WEB.H265【4k HDR 4.98 GB】

邪恶 第三季4k.Evil.S03E01.HDR.2160p.WEB.H265-GGEZ .torrent ( 25.58 KB )



邪恶 第三季4k.Evil.S03E01.2160p.WEB.H265【4k WEB 7.08 GB】

邪恶 第三季4k.Evil.S03E01.2160p.WEB.H265-GGEZ.torrent ( 18.4 KB )



邪恶 第三季4k.Evil.S03E01.2160p.WEB-DL.DD5.1.DV.MKV.x265【4k 杜比视界 5.01 GB】

邪恶 第三季4k.Evil.S03E01.2160p.WEB-DL.DD5.1.DV.MKV.x265-GGEZ.torrent ( 13.2 KB )



邪恶 第三季4k.Evil.S03E01.2160p.WEB-DL.DD5.1.DV.MP4.x265【4k 杜比视界 5.01 GB】

邪恶 第三季4k.Evil.S03E01.2160p.WEB-DL.DD5.1.DV.MP4.x265-DVSUX.torrent ( 13.16 KB )




加入蓝光高清网VIP会员  无限制下载本站所有资源---点这里

资源下载、资源播放、字幕使用、无法下载等常见问题---点这里
回复

使用道具 举报

全部回复0 显示全部楼层

发表回复

您需要登录后才可以回帖 登录 | 立即注册

本版积分规则

联系客服 关注微信 下载APP 返回顶部 返回列表