蓝光高清网

搜索
开启左侧

为了全人类/为全人类 第三季4k.For.All.Mankind.S03E01.HDR.2160p.WEB.H265-4k美剧下载

蓝鸟 发表于 7 天前 | 显示全部楼层 |阅读模式
为全人类 豆瓣评分: 9.2分

状态:第三季(更新至第2集 共10集)
上映时间:2022-06-10
类型:剧情 科幻 
地区:美国
导演:未知
主演:乔尔·金纳曼 / 珊特尔·范圣滕 / 索尼亚·瓦格尔 / 杰西卡·塔克 / 艾迪·盖瑟吉
画质标准:4K(3840x2160) 封装音轨:5.1声道 音轨编码:其他DD
剧情简介
  Apple TV+续订《为全人类》第三季....
本帖最后由 蓝鸟 于 2022-6-18 09:26 编辑

影片参数
为了全人类/为全人类 第三季4k.For.All.Mankind.S03E01.HDR.2160p.WEB.H265-4k美剧信息
Video
ID : 1
Format : HEVC
Format/Info : High Efficiency Video Coding
Format profile : Main 10@L5@High
HDR format : SMPTE ST 2086, HDR10 compatible
Codec ID : V_MPEGH/ISO/HEVC
Duration : 57 min 22 s
Bit rate : 23.6 Mb/s
Width : 3 840 pixels
Height : 1 920 pixels
Display aspect ratio : 2.000
Frame rate mode : Constant
Frame rate : 23.976 (24000/1001) FPS
Color space : YUV
Chroma subsampling : 4:2:0 (Type 2)
Bit depth : 10 bits
Bits/(Pixel*Frame) : 0.134
Stream size : 9.47 GiB (95%)
Language : English
Default : Yes
Forced : No
Color range : Limited
Color primaries : BT.2020
Transfer characteristics : PQ
Matrix coefficients : BT.2020 non-constant
Mastering display color primaries : Display P3
Mastering display luminance : min: 0.0050 cd/m2, max: 1000 cd/m2
Maximum Content Light Level : 1817 cd/m2
Maximum Frame-Average Light Level : 257 cd/m2


Audio
ID : 2
Format : E-AC-3 JOC
Format/Info : Enhanced AC-3 with Joint Object Coding
Commercial name : Dolby Digital Plus with Dolby Atmos
Codec ID : A_EAC3
Duration : 57 min 22 s
Bit rate mode : Constant
Bit rate : 768 kb/s
Channel(s) : 6 channels
Channel layout : L R C LFE Ls Rs
Sampling rate : 48.0 kHz
Frame rate : 31.250 FPS (1536 SPF)
Compression mode : Lossy
Stream size : 315 MiB (3%)
Language : English
Service kind : Complete Main
Default : Yes
Forced : No
Complexity index : 16
Number of dynamic objects : 15
Bed channel count : 1 channel
Bed channel configuration : LFE


Text #1
ID : 3
Format : UTF-8
Codec ID : S_TEXT/UTF8
Codec ID/Info : UTF-8 Plain Text
Title : English [Forced]
Language : English
Default : Yes
Forced : Yes


Text #2
ID : 4
Format : UTF-8
Codec ID : S_TEXT/UTF8
Codec ID/Info : UTF-8 Plain Text
Title : English
Language : English
Default : No
Forced : No


Text #3
ID : 5
Format : UTF-8
Codec ID : S_TEXT/UTF8
Codec ID/Info : UTF-8 Plain Text
Title : Arabic
Language : Arabic
Default : No
Forced : No


Text #4
ID : 6
Format : UTF-8
Codec ID : S_TEXT/UTF8
Codec ID/Info : UTF-8 Plain Text
Title : Bulgarian
Language : Bulgarian
Default : No
Forced : No


Text #5
ID : 7
Format : UTF-8
Codec ID : S_TEXT/UTF8
Codec ID/Info : UTF-8 Plain Text
Title : Chinese Simplified
Language : Chinese
Default : No
Forced : No


Text #6
ID : 8
Format : UTF-8
Codec ID : S_TEXT/UTF8
Codec ID/Info : UTF-8 Plain Text
Title : Chinese Traditional
Language : Chinese
Default : No
Forced : No

蓝光高清网提示您 点击下方附件名称 即可开始下载

多版本下载时请注意区分

为了全人类/为全人类 第三季4k.For.All.Mankind.S03E01.HDR.2160p.WEB.H265-4k美剧下载

为全人类 第三季4k.For.All.Mankind.S03E01.HDR.2160p.WEB.H265自带简繁中字【9.98 GB】

为全人类 第三季4k.For.All.Mankind.S03E01.HDR.2160p.WEB.H265-GGEZ.torrent ( 25.69 KB )



为全人类 第三季4k.For.All.Mankind.S03E01.2160p.ATVP.WEB-DL.DDP5.1.Atmos.DV.MKV.x265自带简繁中字【10.13 GB】

为全人类 第三季4k.For.All.Mankind.S03E01.2160p.ATVP.WEB-DL.DDP5.1.Atmos.DV.MKV.x265-GGEZ.torrent ( 13.39 KB )



为全人类 第三季4k.For.All.Mankind.S03E01.2160p.ATVP.WEB-DL.DDP5.1.Atmos.DV.MP4.x265自带简繁中字【10.13 GB】

为全人类 第三季4k.For.All.Mankind.S03E02.2160p.WEB.H265-GLHF.torrent ( 24.13 KB )



为全人类 第三季4k.For.All.Mankind.S03E02.HDR.2160p.WEB.H265自带简繁中字【10.91 GB】

为全人类 第三季4k.For.All.Mankind.S03E02.HDR.2160p.WEB.H265-GLHF.torrent ( 14.38 KB )




加入蓝光高清网VIP会员  无限制下载本站所有资源---点这里

资源下载、资源播放、字幕使用、无法下载等常见问题---点这里
回复

使用道具 举报

全部回复1 显示全部楼层
gdlmxia 发表于 7 天前 | 显示全部楼层
太好啦&萬分感謝版主的無私發佈分享%
回复 支持 反对

使用道具 举报

发表回复

您需要登录后才可以回帖 登录 | 立即注册

本版积分规则

联系客服 关注微信 下载APP 返回顶部 返回列表