蓝光高清网

搜索
开启左侧

中女翻叮日记(港) / 半熟男女(台) / 装嫩 / 老小孩 / 脱线女王/青少年4k.Young.Adult.2011.2160p.AMZN.WEB-DL.x265.10bit.HDR10Plus.DTS-HD.MA.5.1-4k电影下载-12.39 GB

蓝鸟 发表于 前天 09:19 | 显示全部楼层 |阅读模式
青少年 豆瓣评分: 6.8分
上映时间:2011年
类型:喜剧 剧情 
地区:美国 
导演:贾森·雷特曼
主演:查理兹·塞隆 / 帕特里克·威尔森 / 科莱特·沃夫 / 伊莉莎白·里瑟 / 路易莎·克劳瑟
画质标准:4K HDR  封装音轨:DTS-HD.MA 5.1 
简       介

  尽管自己并不承认,但麦维斯(查理兹·塞隆 Charlize Theron 饰)就是一个标标准准的大龄剩女。她独居,没有朋友,吃垃圾食品,写垃圾小说,更可悲的是,她的小说卖的并不好。某一天,她收到了喜当爹的前男友巴迪(帕特里克·威尔森 Patrick Wilson 饰)的邮件,却错误的认为这是巴迪发给她的求偶信号。麦维斯振奋不已,决定改头换面,重返学生时代住过的水星镇,拯救她深陷婚姻漩涡的前男友。
  在水星镇,她遇见了曾经嘲笑过的胖子马特(帕顿·奥斯瓦尔特 Patton Oswalt 饰),马特让她赶紧打消挖墙脚的念头,因为巴迪的生活其实非常幸福美满,他的妻子也是一个非常有魅力的家庭主妇。麦维斯当然不相信,无奈现实狠狠的甩了她一个耳光,在旧日同学面前出尽了洋相的麦维斯猛然醒悟,巴迪快乐的生活让她充满嫉妒,但自己的生活又何尝不是他人眼中“最好的生活”。一夜之间,麦维斯终于从一个“青少年”变成了一个真正的“成年人”。



影片参数
中女翻叮日记(港) / 半熟男女(台) / 装嫩 / 老小孩 / 脱线女王/青少年4k.Young.Adult.2011.2160p.AMZN.WEB-DL.x265.10bit.HDR10Plus.DTS-HD.MA.5.1-4k电影信息
Video
ID : 1
Format : HEVC
Format/Info : High Efficiency Video Coding
Format profile : Main 10@L5@Main
HDR format : SMPTE ST 2094 App 4, Version 1, HDR10+ Profile B compatible
Codec ID : V_MPEGH/ISO/HEVC
Duration : 1 h 33 min
Bit rate : 14.9 Mb/s
Width : 3 840 pixels
Height : 2 080 pixels
Display aspect ratio : 1.85:1
Frame rate mode : Constant
Frame rate : 23.976 (24000/1001) FPS
Color space : YUV
Chroma subsampling : 4:2:0
Bit depth : 10 bits
Bits/(Pixel*Frame) : 0.078
Stream size : 9.75 GiB (79%)
Language : English
Default : Yes
Forced : No
Color range : Limited
Color primaries : BT.2020
Transfer characteristics : PQ
Matrix coefficients : BT.2020 non-constant
Mastering display color primaries : Display P3
Mastering display luminance : min: 0.0001 cd/m2, max: 1000 cd/m2
Maximum Content Light Level : 865 cd/m2
Maximum Frame-Average Light Level : 99 cd/m2


Audio #1
ID : 2
Format : DTS XLL
Format/Info : Digital Theater Systems
Commercial name : DTS-HD Master Audio
Codec ID : A_DTS
Duration : 1 h 33 min
Bit rate mode : Variable
Bit rate : 3 322 kb/s
Channel(s) : 6 channels
Channel layout : C L R Ls Rs LFE
Sampling rate : 48.0 kHz
Frame rate : 93.750 FPS (512 SPF)
Bit depth : 24 bits
Compression mode : Lossless
Stream size : 2.17 GiB (18%)
Title : DTS-HD Master Audio / English / 5.1 / 48 kHz / 3322 kbps / 24-bit
Language : English
Default : Yes
Forced : No


Audio #2
ID : 3
Format : E-AC-3
Format/Info : Enhanced AC-3
Commercial name : Dolby Digital Plus
Codec ID : A_EAC3
Duration : 1 h 33 min
Bit rate mode : Constant
Bit rate : 640 kb/s
Channel(s) : 6 channels
Channel layout : L R C LFE Ls Rs
Sampling rate : 48.0 kHz
Frame rate : 31.250 FPS (1536 SPF)
Compression mode : Lossy
Stream size : 429 MiB (3%)
Language : English
Service kind : Complete Main
Default : No
Forced : No


Text #1
ID : 4
Format : UTF-8
Codec ID : S_TEXT/UTF8
Codec ID/Info : UTF-8 Plain Text
Duration : 1 h 30 min
Bit rate : 66 b/s
Count of elements : 1464
Stream size : 43.9 KiB (0%)
Title : SDH
Language : English
Default : Yes
Forced : No


Text #2
ID : 5
Format : PGS
Muxing mode : zlib
Codec ID : S_HDMV/PGS
Codec ID/Info : Picture based subtitle format used on BDs/HD-DVDs
Duration : 1 h 28 min
Bit rate : 49.2 kb/s
Count of elements : 2196
Stream size : 31.0 MiB (0%)
Language : English
Default : No
Forced : No


Text #3
ID : 6
Format : PGS
Muxing mode : zlib
Codec ID : S_HDMV/PGS
Codec ID/Info : Picture based subtitle format used on BDs/HD-DVDs
Duration : 1 h 28 min
Bit rate : 53.1 kb/s
Count of elements : 2390
Stream size : 33.6 MiB (0%)
Title : SDH
Language : English
Default : No
Forced : No


Text #4
ID : 7
Format : PGS
Muxing mode : zlib
Codec ID : S_HDMV/PGS
Codec ID/Info : Picture based subtitle format used on BDs/HD-DVDs
Duration : 1 h 28 min
Bit rate : 44.6 kb/s
Count of elements : 2094
Stream size : 28.1 MiB (0%)
Language : Spanish
Default : No
Forced : No


Text #5
ID : 8
Format : PGS
Muxing mode : zlib
Codec ID : S_HDMV/PGS
Codec ID/Info : Picture based subtitle format used on BDs/HD-DVDs
Duration : 1 h 28 min
Bit rate : 38.8 kb/s
Count of elements : 1998
Stream size : 24.5 MiB (0%)
Language : French
Default : No
Forced : No


Text #6
ID : 9
Format : PGS
Muxing mode : zlib
Codec ID : S_HDMV/PGS
Codec ID/Info : Picture based subtitle format used on BDs/HD-DVDs
Duration : 1 h 28 min
Bit rate : 50.6 kb/s
Count of elements : 2172
Stream size : 31.9 MiB (0%)
Language : Portuguese
Default : No
Forced : No


Menu
00:00:00.000 : en:00:00:00.000
00:06:12.664 : en:00:06:12.664
00:11:11.462 : en:00:11:11.462
00:16:49.967 : en:00:16:49.967
00:24:26.590 : en:00:24:26.590
00:32:13.098 : en:00:32:13.098
00:39:00.838 : en:00:39:00.838
00:42:41.934 : en:00:42:41.934
00:50:00.080 : en:00:50:00.080
00:55:23.862 : en:00:55:23.862
01:01:39.571 : en:01:01:39.571
01:06:43.791 : en:01:06:43.791
01:12:09.742 : en:01:12:09.742
01:16:24.330 : en:01:16:24.330
01:21:42.314 : en:01:21:42.314
01:26:35.857 : en:01:26:35.857
01:28:50.325 : en:01:28:50.325


蓝光高清网提示您 点击下方附件名称 即可开始下载


中女翻叮日记(港) / 半熟男女(台) / 装嫩 / 老小孩 / 脱线女王/青少年4k.Young.Adult.2011.2160p.AMZN.WEB-DL.x265.10bit.HDR10Plus.DTS-HD.MA.5.1-4k电影下载

青少年4k.Young.Adult.2011.2160p.AMZN.WEB-DL.x265.10bit.HDR10Plus.DTS-HD.MA.5.1【4k HDR10 12.39 GB】

青少年4k.Young.Adult.2011.2160p.AMZN.WEB-DL.x265.10bit.HDR10Plus.DTS-HD.MA.5.1-NOGRP.torrent ( 16.15 KB )



青少年中文字幕下载
https://www.4kii.com/thread-112114-1-1.html


加入蓝光高清网VIP会员  无限制下载本站所有资源---点这里

资源下载、资源播放、字幕使用、无法下载等常见问题---点这里
回复

使用道具 举报

全部回复1 显示全部楼层
gdlmxia 发表于 昨天 11:10 | 显示全部楼层
太好啦&萬分感謝版主的無私發佈分享%
回复 支持 反对

使用道具 举报

发表回复

您需要登录后才可以回帖 登录 | 立即注册

本版积分规则

联系客服 关注微信 下载APP 返回顶部 返回列表