蓝光高清网

搜索
开启左侧

隐秘的生活 A.Hidden.Life.2019.2160p.WEB-DL.DTS-HD.MA.7.1.DV.MKV.x265-DVSUX 25.46GB

蓝鸟 发表于 前天 10:03 | 显示全部楼层 |阅读模式
隐秘的生活 豆瓣评分: 7.7分
上映时间:2019年
类型:剧情 爱情 传记 战争 
地区:美国 
导演:泰伦斯·马力克
主演:奥古斯特·迪赫 / 瓦莱丽·帕赫纳 / 玛丽亚·西蒙 / 卡琳·纽荷瑟 / 托比亚斯·莫雷蒂
画质标准:4K HDR  封装音轨:DTS-HD.MA 7.1 
简  介

  泰伦斯·马力克继1998年《细细的红线》后,将再次执导二战题材影片。新片取材自真实历史事件,讲述奥地利士兵弗兰茨·杰格斯泰德(奧古斯特·迪赫饰)因在二战时期拒绝为纳粹德国而战,最终被判死刑。据称这将是一部与《细细的红线》风格完全不同的二战影片。该片今夏德国开机。

影片参数
Video
ID                                       : 1
Format                                   : HEVC
Format/Info                              : High Efficiency Video Coding
Format profile                           : Main [email protected]@High
HDR format                               : Dolby Vision, Version 1.0, dvhe.05.06, BL+RPU
Codec ID                                 : V_MPEGH/ISO/HEVC
Duration                                 : 2 h 54 min
Bit rate                                 : 15.7 Mb/s
Width                                    : 3 840 pixels
Height                                   : 2 160 pixels
Display aspect ratio                     : 16:9
Frame rate mode                          : Constant
Frame rate                               : 23.976 (24000/1001/189150) FPS
Color space                              : YUV
Chroma subsampling                       : 4:2:0
Bit depth                                : 10 bits
Bits/(Pixel*Frame)                       : 0.079
Stream size                              : 19.2 GiB (75%)
Language                                 : English
Default                                  : Yes
Forced                                   : No
Color range                              : Full
Audio #1
ID                                       : 2
Format                                   : DTS XLL
Format/Info                              : Digital Theater Systems
Commercial name                          : DTS-HD Master Audio
Codec ID                                 : A_DTS
Duration                                 : 2 h 54 min
Bit rate mode                            : Variable
Bit rate                                 : 4 899 kb/s
Channel(s)                               : 8 channels
Channel layout                           : C L R LFE Lb Rb Lss Rss
Sampling rate                            : 48.0 kHz
Frame rate                               : 93.750 FPS (512 SPF)
Bit depth                                : 24 bits
Compression mode                         : Lossless
Stream size                              : 5.97 GiB (23%)
Title                                    : DTS-HD MA 7.1
Language                                 : English
Default                                  : Yes
Forced                                   : No
Audio #2
ID                                       : 3
Format                                   : E-AC-3
Format/Info                              : Enhanced AC-3
Commercial name                          : Dolby Digital Plus
Codec ID                                 : A_EAC3
Duration                                 : 2 h 54 min
Bit rate mode                            : Constant
Bit rate                                 : 256 kb/s
Channel(s)                               : 6 channels
Channel layout                           : L R C LFE Ls Rs
Sampling rate                            : 48.0 kHz
Frame rate                               : 31.250 FPS (1536 SPF)
Compression mode                         : Lossy
Stream size                              : 319 MiB (1%)
Language                                 : English
Service kind                             : Complete Main
Default                                  : Yes
Forced                                   : No
Text #1
ID                                       : 4
Format                                   : UTF-8
Codec ID                                 : S_TEXT/UTF8
Codec ID/Info                            : UTF-8 Plain Text
Duration                                 : 2 h 53 min
Bit rate                                 : 26 b/s
Count of elements                        : 1349
Stream size                              : 33.7 KiB (0%)
Title                                    : English (SDH)
Language                                 : English
Default                                  : Yes
Forced                                   : No
Text #2
ID                                       : 5
Format                                   : UTF-8
Codec ID                                 : S_TEXT/UTF8
Codec ID/Info                            : UTF-8 Plain Text
Duration                                 : 2 h 52 min
Bit rate                                 : 19 b/s
Count of elements                        : 829
Stream size                              : 25.3 KiB (0%)
Title                                    : Deutsch
Language                                 : German
Default                                  : No
Forced                                   : No
Text #3
ID                                       : 6
Format                                   : UTF-8
Codec ID                                 : S_TEXT/UTF8
Codec ID/Info                            : UTF-8 Plain Text
Duration                                 : 2 h 52 min
Bit rate                                 : 19 b/s
Count of elements                        : 831
Stream size                              : 24.1 KiB (0%)
Title                                    : Espa?ol (Latinoamericano)
Language                                 : Spanish
Default                                  : No
Forced                                   : No
Text #4
ID                                       : 7
Format                                   : UTF-8
Codec ID                                 : S_TEXT/UTF8
Codec ID/Info                            : UTF-8 Plain Text
Duration                                 : 2 h 52 min
Bit rate                                 : 18 b/s
Count of elements                        : 857
Stream size                              : 23.4 KiB (0%)
Title                                    : Espa?ol
Language                                 : Spanish
Default                                  : No
Forced                                   : No
Text #5
ID                                       : 8
Format                                   : UTF-8
Codec ID                                 : S_TEXT/UTF8
Codec ID/Info                            : UTF-8 Plain Text
Duration                                 : 2 h 52 min
Bit rate                                 : 20 b/s
Count of elements                        : 850
Stream size                              : 25.6 KiB (0%)
Title                                    : Fran?ais
Language                                 : French
Default                                  : No
Forced                                   : No
Text #6
ID                                       : 9
Format                                   : UTF-8
Codec ID                                 : S_TEXT/UTF8
Codec ID/Info                            : UTF-8 Plain Text
Duration                                 : 2 h 52 min
Bit rate                                 : 18 b/s
Count of elements                        : 842
Stream size                              : 24.0 KiB (0%)
Title                                    : Fran?ais (Canadien)
Language                                 : French
Default                                  : No
Forced                                   : No
Text #7
ID                                       : 10
Format                                   : UTF-8
Codec ID                                 : S_TEXT/UTF8
Codec ID/Info                            : UTF-8 Plain Text
Duration                                 : 2 h 52 min
Bit rate                                 : 18 b/s
Count of elements                        : 851
Stream size                              : 23.6 KiB (0%)
Title                                    : Magyar
Language                                 : Hungarian
Default                                  : No
Forced                                   : No
Text #8
ID                                       : 11
Format                                   : UTF-8
Codec ID                                 : S_TEXT/UTF8
Codec ID/Info                            : UTF-8 Plain Text
Duration                                 : 2 h 52 min
Bit rate                                 : 19 b/s
Count of elements                        : 839
Stream size                              : 24.3 KiB (0%)
Title                                    : Italiano
Language                                 : Italian
Default                                  : No
Forced                                   : No
Text #9
ID                                       : 12
Format                                   : UTF-8
Codec ID                                 : S_TEXT/UTF8
Codec ID/Info                            : UTF-8 Plain Text
Duration                                 : 2 h 52 min
Bit rate                                 : 16 b/s
Count of elements                        : 779
Stream size                              : 20.5 KiB (0%)
Title                                    : Japanese
Language                                 : Japanese
Default                                  : No
Forced                                   : No
Text #10
ID                                       : 13
Format                                   : UTF-8
Codec ID                                 : S_TEXT/UTF8
Codec ID/Info                            : UTF-8 Plain Text
Duration                                 : 2 h 52 min
Bit rate                                 : 17 b/s
Count of elements                        : 852
Stream size                              : 22.3 KiB (0%)
Title                                    : Korean
Language                                 : Korean
Default                                  : No
Forced                                   : No
Text #11
ID                                       : 14
Format                                   : UTF-8
Codec ID                                 : S_TEXT/UTF8
Codec ID/Info                            : UTF-8 Plain Text
Duration                                 : 2 h 52 min
Bit rate                                 : 16 b/s
Count of elements                        : 793
Stream size                              : 20.5 KiB (0%)
Title                                    : Nederlands
Language                                 : Dutch
Default                                  : No
Forced                                   : No
Text #12
ID                                       : 15
Format                                   : UTF-8
Codec ID                                 : S_TEXT/UTF8
Codec ID/Info                            : UTF-8 Plain Text
Duration                                 : 2 h 52 min
Bit rate                                 : 17 b/s
Count of elements                        : 832
Stream size                              : 22.3 KiB (0%)
Title                                    : Polski
Language                                 : Polish
Default                                  : No
Forced                                   : No
Text #13
ID                                       : 16
Format                                   : UTF-8
Codec ID                                 : S_TEXT/UTF8
Codec ID/Info                            : UTF-8 Plain Text
Duration                                 : 2 h 52 min
Bit rate                                 : 18 b/s
Count of elements                        : 831
Stream size                              : 24.0 KiB (0%)
Title                                    : Português (Brasil)
Language                                 : Portuguese
Default                                  : No
Forced                                   : No
Text #14
ID                                       : 17
Format                                   : UTF-8
Codec ID                                 : S_TEXT/UTF8
Codec ID/Info                            : UTF-8 Plain Text
Duration                                 : 2 h 52 min
Bit rate                                 : 19 b/s
Count of elements                        : 850
Stream size                              : 24.4 KiB (0%)
Title                                    : Roman?
Language                                 : Romanian
Default                                  : No
Forced                                   : No
Text #15
ID                                       : 18
Format                                   : UTF-8
Codec ID                                 : S_TEXT/UTF8
Codec ID/Info                            : UTF-8 Plain Text
Duration                                 : 2 h 52 min
Bit rate                                 : 16 b/s
Count of elements                        : 852
Stream size                              : 21.0 KiB (0%)
Title                                    : Sloven?ina
Language                                 : Slovak
Default                                  : No
Forced                                   : No
Text #16
ID                                       : 19
Format                                   : UTF-8
Codec ID                                 : S_TEXT/UTF8
Codec ID/Info                            : UTF-8 Plain Text
Duration                                 : 2 h 52 min
Bit rate                                 : 18 b/s
Count of elements                        : 845
Stream size                              : 24.0 KiB (0%)
Title                                    : Türk?e
Language                                 : Turkish
Default                                  : No
Forced                                   : No
Text #17
ID                                       : 20
Format                                   : UTF-8
Codec ID                                 : S_TEXT/UTF8
Codec ID/Info                            : UTF-8 Plain Text
Duration                                 : 2 h 52 min
Bit rate                                 : 14 b/s
Count of elements                        : 853
Stream size                              : 18.9 KiB (0%)
Title                                    : Chinese (Traditional)
Language                                 : Chinese
Default                                  : No
Forced                                   : No
Text #18
ID                                       : 21
Format                                   : UTF-8
Codec ID                                 : S_TEXT/UTF8
Codec ID/Info                            : UTF-8 Plain Text
Duration                                 : 2 h 52 min
Bit rate                                 : 14 b/s
Count of elements                        : 854
Stream size                              : 18.9 KiB (0%)
Title                                    : Chinese (Simplified)
Language                                 : Chinese
Default                                  : No
Forced                                   : No

蓝光高清网提示您 点击下方附件名称 即可开始下载

多版本下载时请注意区分

隐秘的生活 A.Hidden.Life.2019.2160p.WEB-DL.DTS-HD.MA.7.1 4k电影下载

隐秘的生活 A.Hidden.Life.2019.2160p.WEB-DL.DTS-HD.MA.7.1.DV.MKV.x265-DVSUX 25.46GB

A.Hidden.Life.2019.2160p.WEB-DL.DTS-HD.MA.7.1.DV.MKV.x265-DVSUX.torrent ( 32.48 KB )



隐秘的生活 A.Hidden.Life.2019.2160p.WEB-DL.DD5.1.DV.MP4.x265-DVSUX 19.49GB

A.Hidden.Life.2019.2160p.WEB-DL.DD5.1.DV.MP4.x265-DVSUX.torrent ( 25 KB )



隐秘的生活中文字幕下载
https://www.4kii.com/thread-112124-1-1.html


加入蓝光高清网VIP会员  无限制下载本站所有资源---点这里

资源下载、资源播放、字幕使用、无法下载等常见问题---点这里
回复

使用道具 举报

全部回复2 显示全部楼层
PCHUN 发表于 昨天 00:13 | 显示全部楼层
謝謝樓主分享
回复 支持 反对

使用道具 举报

dongshouba手机认证 发表于 昨天 00:15 | 显示全部楼层
感谢分享
回复

使用道具 举报

发表回复

您需要登录后才可以回帖 登录 | 立即注册

本版积分规则

联系客服 关注微信 下载APP 返回顶部 返回列表