蓝光高清网

搜索
开启左侧

[恐怖] 杰克先生 Jack.O.1995.1080p.BluRay.x264.DTS-FGT 8.08GB

蓝鸟 发表于 前天 10:43 | 显示全部楼层 |阅读模式

杰克先生 Jack.O.1995.1080p.BluRay.x264.DTS-FGT 8.08GB

杰克先生 Jack.O.1995.1080p.BluRay.x264.DTS-FGT 8.08GB


标  题 杰克先生
译  名 恐怖夜
片  名 Jack-O
年  代 1995
产  地 美国
类  别 恐怖
语  言 英语
上映日期 1995-10-10
IMDb评分 3.3/10 (1374人评价)
片  长 88 分钟

简  介

在很多年前,亚瑟凯利作为驱魔师,打败了在小镇上作威作福的巫师华特(约翰·卡拉丁 John Carradine 饰),在临死之前,为了报复,华特召唤出了凶狠残暴的南瓜人,每年万圣节,它都会献身滥杀无辜,为小镇带来一抹血色,而世世代代都是驱魔师的凯利家族有人预言,只有凯利家族的第十五代继承人才能够杀死南瓜人,而这个人正是西恩(Ryan Latshaw 饰)。                                    
                                这一天,一个名叫薇薇安(Catherine Walsh 饰)的女人找到了西恩,她告诉西恩,危险和死亡正在迅速的接近他。面对薇薇安的死亡警告,西恩会做出怎样的选择呢,究竟是做胆小的缩头乌龟,还是勇敢的挺身而出,对抗古老的诅咒。


影片参数
  1. Video
  2. ID                                       : 1
  3. Format                                   : AVC
  4. Format/Info                              : Advanced Video Codec
  5. Format profile                           : [email protected]
  6. Format settings                          : CABAC / 4 Ref Frames
  7. Format settings, CABAC                   : Yes
  8. Format settings, Reference frames        : 4 frames
  9. Codec ID                                 : V_MPEG4/ISO/AVC
  10. Duration                                 : 1 h 28 min
  11. Bit rate                                 : 11.5 Mb/s
  12. Width                                    : 1 692 pixels
  13. Height                                   : 1 080 pixels
  14. Display aspect ratio                     : 16:10
  15. Frame rate mode                          : Constant
  16. Frame rate                               : 23.976 (24000/1001/189150) FPS
  17. Color space                              : YUV
  18. Chroma subsampling                       : 4:2:0
  19. Bit depth                                : 8 bits
  20. Scan type                                : Progressive
  21. Bits/(Pixel*Frame)                       : 0.262
  22. Stream size                              : 7.14 GiB (88%)
  23. Writing library                          : x264 core 148 r2795M aaa9aa8
  24. Encoding settings                        : cabac=1 / ref=4 / deblock=1:-2:-2 / analyse=0x3:0x113 / me=umh / subme=9 / psy=1 / psy_rd=1.00:0.15 / mixed_ref=1 / me_range=16 / chroma_me=1 / trellis=2 / 8x8dct=1 / cqm=0 / deadzone=21,11 / fast_pskip=1 / chroma_qp_offset=-3 / threads=24 / lookahead_threads=3 / sliced_threads=0 / nr=0 / decimate=1 / interlaced=0 / bluray_compat=0 / constrained_intra=0 / bframes=3 / b_pyramid=2 / b_adapt=1 / b_bias=0 / direct=3 / weightb=1 / open_gop=0 / weightp=2 / keyint=250 / keyint_min=25 / scenecut=40 / intra_refresh=0 / rc_lookahead=50 / rc=2pass / mbtree=1 / bitrate=11500 / ratetol=1.0 / qcomp=0.60 / qpmin=0 / qpmax=69 / qpstep=4 / cplxblur=20.0 / qblur=0.5 / vbv_maxrate=31250 / vbv_bufsize=31250 / nal_hrd=none / filler=0 / ip_ratio=1.40 / aq=1:1.00
  25. Language                                 : English
  26. Default                                  : Yes
  27. Forced                                   : No
  28. Audio
  29. ID                                       : 2
  30. Format                                   : DTS
  31. Format/Info                              : Digital Theater Systems
  32. Codec ID                                 : A_DTS
  33. Duration                                 : 1 h 28 min
  34. Bit rate mode                            : Constant
  35. Bit rate                                 : 1 509 kb/s
  36. Channel(s)                               : 2 channels
  37. Channel layout                           : L R
  38. Sampling rate                            : 48.0 kHz
  39. Frame rate                               : 93.750 FPS (512 SPF)
  40. Bit depth                                : 16 bits
  41. Compression mode                         : Lossy
  42. Stream size                              : 960 MiB (12%)
  43. Language                                 : English
  44. Default                                  : Yes
  45. Forced                                   : No
  46. Menu
  47. 00:00:00.000                             : en:Chapter 01
  48. 00:06:25.093                             : en:Chapter 02
  49. 00:10:48.898                             : en:Chapter 03
  50. 00:13:25.555                             : en:Chapter 04
  51. 00:16:18.519                             : en:Chapter 05
  52. 00:19:28.417                             : en:Chapter 06
  53. 00:23:09.763                             : en:Chapter 07
  54. 00:29:30.143                             : en:Chapter 08
  55. 00:35:18.366                             : en:Chapter 09
  56. 00:42:54.113                             : en:Chapter 10
  57. 00:47:37.521                             : en:Chapter 11
  58. 00:53:07.059                             : en:Chapter 12
  59. 00:56:52.910                             : en:Chapter 13
  60. 01:00:52.065                             : en:Chapter 14
  61. 01:04:13.516                             : en:Chapter 15
  62. 01:08:52.795                             : en:Chapter 16
  63. 01:14:15.034                             : en:Chapter 17
  64. 01:18:37.546                             : en:Chapter 18
  65. 01:21:27.800                             : en:Chapter 19
  66. 01:24:11.630                             : en:Chapter 20
复制代码

杰克先生 Jack.O.1995.1080p.BluRay.x264.DTS-FGT 8.08GB

杰克先生 Jack.O.1995.1080p.BluRay.x264.DTS-FGT 8.08GB

杰克先生 Jack.O.1995.1080p.BluRay.x264.DTS-FGT 8.08GB

杰克先生 Jack.O.1995.1080p.BluRay.x264.DTS-FGT 8.08GB



蓝光高清网提示您 点击下方附件即可下载

杰克先生 Jack.O.1995.1080p.BluRay.x264.DTS-FGT 8.08GB

Jack.O.1995.1080p.BluRay.x264.DTS-FGT.torrent ( 20.81 KB )

加入蓝光高清网VIP会员  无限制下载本站所有资源---点这里

资源下载、资源播放、字幕使用、无法下载等常见问题---点这里
回复

使用道具 举报

全部回复0 显示全部楼层

发表回复

您需要登录后才可以回帖 登录 | 立即注册

本版积分规则

联系客服 关注微信 下载APP 返回顶部 返回列表