蓝光高清网

搜索
开启左侧

[剧情] 凶火 Firestarter.2022.1080p.BluRay.x264.DTS-HD.MA.5.1-MT 11.93GB

蓝鸟 发表于 前天 10:44 | 显示全部楼层 |阅读模式

凶火 Firestarter.2022.1080p.BluRay.x264.DTS-HD.MA.5.1-MT 11.93GB

凶火 Firestarter.2022.1080p.BluRay.x264.DTS-HD.MA.5.1-MT 11.93GB


标  题 凶火
译  名 燃火的女孩(台)
片  名 Firestarter
年  代 2022
产  地 美国
类  别 剧情 / 科幻 / 惊悚 / 恐怖
语  言 英语
上映日期 2022-05-13(美国/美国网络)
IMDb评分 5/10 (142人评价)
导  演 基斯·托马斯 Keith Thomas
编  剧 斯蒂芬·金 Stephen King
       斯科特·泰姆斯 Scott Teems
演  员 赖恩·基拉·阿姆斯特朗 Ryan Kiera Armstrong
       扎克·埃夫隆 Zac Efron
       西德妮·莱蒙 Sydney Lemmon
       麦克尔·格雷耶斯 Michael Greyeyes
       格洛利亚·鲁本 Gloria Reuben
       Tina Jung Tina Jung
       兰内特·瓦雷 Lanette Ware
       加文·麦基弗·赖特 Gavin MacIver-Wright
       丹尼·沃 Danny Waugh

简  介

斯蒂芬·金又一部小说将拍成电影:著名编剧Akiva Goldsman将执导新的《凶火》电影版,讲述一对通过实验获得超能力的夫妻生下一个能遭纵火焰的女儿,政府派出特工绑架小姑娘,试图让她成为武器…父女情很感人。1984年曾有一版电影,德鲁·巴里摩尔演那个小女孩,相当厉害。但那版被斯蒂芬·金称为“自己小说最烂的改编之一,故事倒是忠于原作,但太乏味了,就像酒店自助餐厅的马铃薯泥。”


影片参数
  1. Video
  2. ID                                       : 1
  3. Format                                   : AVC
  4. Format/Info                              : Advanced Video Codec
  5. Format profile                           : [email protected]
  6. Format settings                          : CABAC / 5 Ref Frames
  7. Format settings, CABAC                   : Yes
  8. Format settings, Reference frames        : 5 frames
  9. Codec ID                                 : V_MPEG4/ISO/AVC
  10. Duration                                 : 1 h 34 min
  11. Bit rate                                 : 14.5 Mb/s
  12. Width                                    : 1 920 pixels
  13. Height                                   : 804 pixels
  14. Display aspect ratio                     : 2.40:1
  15. Frame rate mode                          : Constant
  16. Frame rate                               : 23.976 (24000/1001/189150) FPS
  17. Color space                              : YUV
  18. Chroma subsampling                       : 4:2:0
  19. Bit depth                                : 8 bits
  20. Scan type                                : Progressive
  21. Bits/(Pixel*Frame)                       : 0.391
  22. Stream size                              : 9.53 GiB (80%)
  23. Writing library                          : x264 core 157 r2938 2b00a84 [email protected] Mod
  24. Encoding settings                        : cabac=1 / ref=5 / deblock=1:-3:-3 / analyse=0x3:0x133 / me=umh / subme=10 / psy=1 / psy_rd=1.05:0.00 / mixed_ref=1 / me_range=32 / chroma_me=1 / trellis=2 / 8x8dct=1 / cqm=0 / deadzone=21,11 / fast_pskip=0 / chroma_qp_offset=-2 / threads=12 / lookahead_threads=2 / sliced_threads=0 / nr=0 / decimate=0 / interlaced=0 / bluray_compat=0 / constrained_intra=0 / bframes=8 / b_pyramid=2 / b_adapt=2 / b_bias=0 / direct=3 / weightb=1 / open_gop=0 / weightp=2 / keyint=250 / keyint_min=24 / scenecut=40 / intra_refresh=0 / rc_lookahead=250 / rc=crf / mbtree=0 / crf=16.8 / qcomp=0.60 / qpmin=0 / qpmax=69 / qpstep=4 / vbv_maxrate=62500 / vbv_bufsize=78125 / crf_max=0.0 / nal_hrd=none / filler=0 / ip_ratio=1.30 / pb_ratio=1.20 / aq=3:0.80
  25. Language                                 : English
  26. Default                                  : Yes
  27. Forced                                   : No
  28. Color range                              : Limited
  29. Color primaries                          : BT.709
  30. Matrix coefficients                      : BT.709
  31. Audio
  32. ID                                       : 2
  33. Format                                   : DTS XLL
  34. Format/Info                              : Digital Theater Systems
  35. Commercial name                          : DTS-HD Master Audio
  36. Codec ID                                 : A_DTS
  37. Duration                                 : 1 h 34 min
  38. Bit rate mode                            : Variable
  39. Bit rate                                 : 3 605 kb/s
  40. Channel(s)                               : 6 channels
  41. Channel layout                           : C L R Ls Rs LFE
  42. Sampling rate                            : 48.0 kHz
  43. Frame rate                               : 93.750 FPS (512 SPF)
  44. Bit depth                                : 24 bits
  45. Compression mode                         : Lossless
  46. Stream size                              : 2.37 GiB (20%)
  47. Language                                 : English
  48. Default                                  : Yes
  49. Forced                                   : No
  50. Text #1
  51. ID                                       : 3
  52. Format                                   : UTF-8
  53. Codec ID                                 : S_TEXT/UTF8
  54. Codec ID/Info                            : UTF-8 Plain Text
  55. Duration                                 : 1 h 24 min
  56. Bit rate                                 : 45 b/s
  57. Count of elements                        : 996
  58. Stream size                              : 28.1 KiB (0%)
  59. Language                                 : English
  60. Default                                  : Yes
  61. Forced                                   : No
  62. Text #2
  63. ID                                       : 4
  64. Format                                   : UTF-8
  65. Codec ID                                 : S_TEXT/UTF8
  66. Codec ID/Info                            : UTF-8 Plain Text
  67. Duration                                 : 1 h 28 min
  68. Bit rate                                 : 49 b/s
  69. Count of elements                        : 1153
  70. Stream size                              : 31.7 KiB (0%)
  71. Title                                    : SDH
  72. Language                                 : English
  73. Default                                  : No
  74. Forced                                   : No
  75. Text #3
  76. ID                                       : 5
  77. Format                                   : PGS
  78. Muxing mode                              : zlib
  79. Codec ID                                 : S_HDMV/PGS
  80. Codec ID/Info                            : Picture based subtitle format used on BDs/HD-DVDs
  81. Duration                                 : 1 h 28 min
  82. Bit rate                                 : 34.7 kb/s
  83. Count of elements                        : 2326
  84. Stream size                              : 21.9 MiB (0%)
  85. Language                                 : English
  86. Default                                  : No
  87. Forced                                   : No
  88. Text #4
  89. ID                                       : 6
  90. Format                                   : PGS
  91. Muxing mode                              : zlib
  92. Codec ID                                 : S_HDMV/PGS
  93. Codec ID/Info                            : Picture based subtitle format used on BDs/HD-DVDs
  94. Duration                                 : 1 h 30 min
  95. Bit rate                                 : 28.7 kb/s
  96. Count of elements                        : 2144
  97. Stream size                              : 18.6 MiB (0%)
  98. Language                                 : Spanish
  99. Default                                  : No
  100. Forced                                   : No
  101. Text #5
  102. ID                                       : 7
  103. Format                                   : PGS
  104. Muxing mode                              : zlib
  105. Codec ID                                 : S_HDMV/PGS
  106. Codec ID/Info                            : Picture based subtitle format used on BDs/HD-DVDs
  107. Duration                                 : 1 h 30 min
  108. Bit rate                                 : 29.6 kb/s
  109. Count of elements                        : 2000
  110. Stream size                              : 19.1 MiB (0%)
  111. Language                                 : French
  112. Default                                  : No
  113. Forced                                   : No
  114. Menu
  115. 00:00:00.000                             : en:Chapter 01
  116. 00:02:55.467                             : en:Chapter 02
  117. 00:09:33.740                             : en:Chapter 03
  118. 00:13:53.249                             : en:Chapter 04
  119. 00:17:04.565                             : en:Chapter 05
  120. 00:23:46.008                             : en:Chapter 06
  121. 00:29:17.297                             : en:Chapter 07
  122. 00:35:31.963                             : en:Chapter 08
  123. 00:40:17.540                             : en:Chapter 09
  124. 00:45:21.177                             : en:Chapter 10
  125. 00:49:35.890                             : en:Chapter 11
  126. 00:56:08.657                             : en:Chapter 12
  127. 01:00:50.480                             : en:Chapter 13
  128. 01:06:27.275                             : en:Chapter 14
  129. 01:10:46.617                             : en:Chapter 15
  130. 01:13:14.765                             : en:Chapter 16
  131. 01:19:03.530                             : en:Chapter 17
  132. 01:23:04.146                             : en:Chapter 18
  133. 01:28:24.007                             : en:Chapter 19
  134. 01:30:20.498                             : en:Chapter 20
复制代码

凶火 Firestarter.2022.1080p.BluRay.x264.DTS-HD.MA.5.1-MT 11.93GB

凶火 Firestarter.2022.1080p.BluRay.x264.DTS-HD.MA.5.1-MT 11.93GB

凶火 Firestarter.2022.1080p.BluRay.x264.DTS-HD.MA.5.1-MT 11.93GB

凶火 Firestarter.2022.1080p.BluRay.x264.DTS-HD.MA.5.1-MT 11.93GB



蓝光高清网提示您 点击下方附件即可下载

凶火 Firestarter.2022.1080p.BluRay.x264.DTS-HD.MA.5.1-MT 11.93GB

Firestarter.2022.1080p.BluRay.x264.DTS-HD.MA.5.1-MT.torrent ( 15.54 KB )

加入蓝光高清网VIP会员  无限制下载本站所有资源---点这里

资源下载、资源播放、字幕使用、无法下载等常见问题---点这里
回复

使用道具 举报

全部回复1 显示全部楼层
wangzhang3手机认证 发表于 前天 12:05 | 显示全部楼层
楼主辛苦了,谢谢分享
回复 支持 反对

使用道具 举报

发表回复

您需要登录后才可以回帖 登录 | 立即注册

本版积分规则

联系客服 关注微信 下载APP 返回顶部 返回列表