蓝光高清网

搜索
开启左侧

[喜剧] 瞬息全宇宙 Everything.Everywhere.All.at.Once.2022.1080p.BluRay.x264.DTS-MT 17.60GB

蓝鸟 发表于 前天 10:45 | 显示全部楼层 |阅读模式

瞬息全宇宙 Everything.Everywhere.All.at.Once.2022.1080p.BluRay.x264.DTS-MT 17.60GB

瞬息全宇宙 Everything.Everywhere.All.at.Once.2022.1080p.BluRay.x264.DTS-MT 17.60GB


标  题 瞬息全宇宙
译  名 妈的多重宇宙(台) / 全部世界同时一切 / 瞬息各处所有 / 天马行空(新加坡) / 奇异女侠玩救宇宙(港)
片  名 Everything Everywhere All at Once
年  代 2022
产  地 美国
类  别 喜剧 / 奇幻 / 冒险
语  言 英语 / 汉语普通话 / 粤语
上映日期 2022-03-11(西南偏南电影节) / 2022-03-25(美国)
IMDb评分 8.8/10 (43077人评价)
豆瓣评分 8.7/10 (11759人评价)
片  长 132分钟
导  演 丹·关 Dan Kwan
       丹尼尔·施纳特 Daniel Scheinert
编  剧 丹·关 Dan Kwan
       丹尼尔·施纳特 Daniel Scheinert
演  员 杨紫琼 Michelle Yeoh
       斯蒂芬妮·许 Stephanie Hsu
       关继威 Jonathan Ke Quan
       吴汉章 James Hong
       杰米·李·柯蒂斯 Jamie Lee Curtis
       珍妮·斯蕾特 Jenny Slate
       塔丽·梅德尔 Tallie Medel
       岑勇康 Harry Shum Jr.
       比夫·威夫 Biff Wiff
       苏妮特·玛尼 Sunita Mani
       阿隆·拉扎尔 Aaron Lazar
       布莱恩·勒 Brian Le
       安迪·黎 Andy Le
       切尔西·戈德史密斯 Chelsey Goldsmith
       克雷格·亨宁森 Craig Henningsen
       安东尼·莫利纳利 Anthony Molinari
       丹·布朗 Dan Brown
       帕努瓦特·安东尼·纳纳肯帕诺姆 Panuvat Anthony Nanakornpanom
       卡拉·玛丽·乔尔简 Cara Marie Chooljian
       兰达尔·阿切尔 Randall Archer
       埃夫卡·科瓦拉西尤斯 Efka Kvaraciejus
       奥德丽·瓦西莱夫斯基 Audrey Wasilewski
       布恩·平考 Boon Pin Koh
       蒂莫西·尤里齐 Timothy Eulich
       西协美智子 Michiko Nishiwaki
       蒂莫西·斯科特·拉尔斯顿 Timothy Scott Ralston
       D.Y. Sao D.Y. Sao
       安东尼·罗素 Anthony Russo
       乔·罗素 Joe Russo
       丹尼尔·施纳特 Daniel Scheinert
       丹·关 Dan Kwan
       杨紫琼 Michelle Yeoh
       萨拉·芬兰 Sarah Finn
       迈克·拉罗卡 Mike Larocca
       托德·马库拉思 Todd Makurath
       萨拉·芬兰 Sarah Finn

简  介

55岁的美国华裔移民秀莲(杨紫琼 饰)家庭事业两崩溃。在老爸爸生日大寿这天,除了要阻止女儿(斯蒂芬妮·许 饰)暴走出柜、替无用丈夫(关继威 饰)擦屁股,还得去税务局向古板大婶(杰米·李·柯蒂斯 饰)解释不太妙的税务问题。才踏进大楼电梯,软烂丈夫竟摇身一变演起黑客任务,声 称自己是另一个宇宙的版本,而秀莲也是千万宇宙里的其中一个。还来不及理解,邪恶势力已在多元宇宙中蔓延,世界即将毁灭,只有在这个宇宙里,“一无是处”的秀莲才能拯救世界……


影片参数
  1. Video
  2. ID                                       : 1
  3. Format                                   : AVC
  4. Format/Info                              : Advanced Video Codec
  5. Format profile                           : [email protected]
  6. Format settings                          : CABAC / 4 Ref Frames
  7. Format settings, CABAC                   : Yes
  8. Format settings, Reference frames        : 4 frames
  9. Codec ID                                 : V_MPEG4/ISO/AVC
  10. Duration                                 : 2 h 19 min
  11. Bit rate                                 : 16.6 Mb/s
  12. Width                                    : 1 920 pixels
  13. Height                                   : 1 038 pixels
  14. Display aspect ratio                     : 1.85:1
  15. Frame rate mode                          : Constant
  16. Frame rate                               : 23.976 (24000/1001/189150) FPS
  17. Color space                              : YUV
  18. Chroma subsampling                       : 4:2:0
  19. Bit depth                                : 8 bits
  20. Scan type                                : Progressive
  21. Bits/(Pixel*Frame)                       : 0.346
  22. Stream size                              : 16.1 GiB (92%)
  23. Writing library                          : x264 core 157 r2938 2b00a84 [email protected] Mod
  24. Encoding settings                        : cabac=1 / ref=4 / deblock=1:-3:-3 / analyse=0x3:0x133 / me=umh / subme=10 / psy=1 / psy_rd=1.05:0.00 / mixed_ref=1 / me_range=32 / chroma_me=1 / trellis=2 / 8x8dct=1 / cqm=0 / deadzone=21,11 / fast_pskip=0 / chroma_qp_offset=-2 / threads=12 / lookahead_threads=2 / sliced_threads=0 / nr=0 / decimate=0 / interlaced=0 / bluray_compat=0 / constrained_intra=0 / bframes=8 / b_pyramid=2 / b_adapt=2 / b_bias=0 / direct=3 / weightb=1 / open_gop=0 / weightp=2 / keyint=250 / keyint_min=24 / scenecut=40 / intra_refresh=0 / rc_lookahead=250 / rc=crf / mbtree=0 / crf=16.8 / qcomp=0.60 / qpmin=0 / qpmax=69 / qpstep=4 / vbv_maxrate=62500 / vbv_bufsize=78125 / crf_max=0.0 / nal_hrd=none / filler=0 / ip_ratio=1.30 / pb_ratio=1.20 / aq=3:0.80
  25. Language                                 : English
  26. Default                                  : Yes
  27. Forced                                   : No
  28. Color range                              : Limited
  29. Color primaries                          : BT.709
  30. Matrix coefficients                      : BT.709
  31. Audio
  32. ID                                       : 2
  33. Format                                   : DTS
  34. Format/Info                              : Digital Theater Systems
  35. Codec ID                                 : A_DTS
  36. Duration                                 : 2 h 19 min
  37. Bit rate mode                            : Constant
  38. Bit rate                                 : 1 509 kb/s
  39. Channel(s)                               : 6 channels
  40. Channel layout                           : C L R Ls Rs LFE
  41. Sampling rate                            : 48.0 kHz
  42. Frame rate                               : 93.750 FPS (512 SPF)
  43. Bit depth                                : 24 bits
  44. Compression mode                         : Lossy
  45. Stream size                              : 1.47 GiB (8%)
  46. Language                                 : English
  47. Default                                  : Yes
  48. Forced                                   : No
  49. Text #1
  50. ID                                       : 3
  51. Format                                   : UTF-8
  52. Codec ID                                 : S_TEXT/UTF8
  53. Codec ID/Info                            : UTF-8 Plain Text
  54. Duration                                 : 2 h 10 min
  55. Bit rate                                 : 43 b/s
  56. Count of elements                        : 1442
  57. Stream size                              : 41.4 KiB (0%)
  58. Language                                 : English
  59. Default                                  : Yes
  60. Forced                                   : No
  61. Text #2
  62. ID                                       : 4
  63. Format                                   : UTF-8
  64. Codec ID                                 : S_TEXT/UTF8
  65. Codec ID/Info                            : UTF-8 Plain Text
  66. Duration                                 : 2 h 15 min
  67. Bit rate                                 : 60 b/s
  68. Count of elements                        : 2093
  69. Stream size                              : 60.4 KiB (0%)
  70. Title                                    : SDH
  71. Language                                 : English
  72. Default                                  : No
  73. Forced                                   : No
  74. Text #3
  75. ID                                       : 5
  76. Format                                   : PGS
  77. Muxing mode                              : zlib
  78. Codec ID                                 : S_HDMV/PGS
  79. Codec ID/Info                            : Picture based subtitle format used on BDs/HD-DVDs
  80. Duration                                 : 2 h 15 min
  81. Bit rate                                 : 39.2 kb/s
  82. Count of elements                        : 4244
  83. Stream size                              : 38.0 MiB (0%)
  84. Language                                 : English
  85. Default                                  : No
  86. Forced                                   : No
  87. Menu
  88. 00:00:00.000                             : en:Chapter 01
  89. 00:07:05.050                             : en:Chapter 02
  90. 00:11:45.705                             : en:Chapter 03
  91. 00:24:55.327                             : en:Chapter 04
  92. 00:32:52.262                             : en:Chapter 05
  93. 00:42:08.109                             : en:Chapter 06
  94. 00:52:26.602                             : en:Chapter 07
  95. 01:01:51.625                             : en:Chapter 08
  96. 01:10:27.974                             : en:Chapter 09
  97. 01:17:09.041                             : en:Chapter 10
  98. 01:25:09.104                             : en:Chapter 11
  99. 01:31:54.509                             : en:Chapter 12
  100. 01:39:50.818                             : en:Chapter 13
  101. 01:51:25.679                             : en:Chapter 14
  102. 01:59:09.142                             : en:Chapter 15
  103. 02:10:08.467                             : en:Chapter 16
复制代码

瞬息全宇宙 Everything.Everywhere.All.at.Once.2022.1080p.BluRay.x264.DTS-MT 17.60GB

瞬息全宇宙 Everything.Everywhere.All.at.Once.2022.1080p.BluRay.x264.DTS-MT 17.60GB

瞬息全宇宙 Everything.Everywhere.All.at.Once.2022.1080p.BluRay.x264.DTS-MT 17.60GB

瞬息全宇宙 Everything.Everywhere.All.at.Once.2022.1080p.BluRay.x264.DTS-MT 17.60GB



蓝光高清网提示您 点击下方附件即可下载

瞬息全宇宙 Everything.Everywhere.All.at.Once.2022.1080p.BluRay.x264.DTS-MT 17.60GB

Everything.Everywhere.All.at.Once.2022.1080p.BluRay.x264.DTS-MT.torrent ( 22.65 KB )

加入蓝光高清网VIP会员  无限制下载本站所有资源---点这里

资源下载、资源播放、字幕使用、无法下载等常见问题---点这里
回复

使用道具 举报

全部回复0 显示全部楼层

发表回复

您需要登录后才可以回帖 登录 | 立即注册

本版积分规则

联系客服 关注微信 下载APP 返回顶部 返回列表