蓝光高清网

搜索
开启左侧

[动画] 杀掉它,然后离开这个小镇 Kill.It.and.Leave.This.Town.2020.1080p.BluRay.x264-ORBS 5.56GB

蓝鸟 发表于 前天 10:47 | 显示全部楼层 |阅读模式

杀掉它,然后离开这个小镇 Kill.It.and.Leave.This.Town.2020.1080p.BluRay.x264-ORBS 5.56GB

杀掉它,然后离开这个小镇 Kill.It.and.Leave.This.Town.2020.1080p.BluRay.x264-ORBS 5.56GB


标  题 杀掉它,然后离开这个小镇
译  名 Mistrz i Malgorzata / Kill It and Leave This Town
片  名 Zabij to i wyjedź z tego miasta
年  代 2020
产  地 波兰
类  别 动画
语  言 英语 / 波兰语
上映日期 2020-02-22(柏林电影节)
IMDb评分 6.6/10 (788人评价)
豆瓣评分 7.2/10 (993人评价)
片  长 88分钟
导  演 马里乌什·维尔琴斯基 Mariusz Wilczyński
编  剧 阿格涅什卡·西伯 Agnieszka Scibior
       马里乌什·维尔琴斯基 Mariusz Wilczyński
       米哈伊尔·A·布尔加科夫 Mikhail A. Bulgakov
演  员 安杰伊·瓦伊达 Andrzej Wajda
       玛雅·奥丝塔泽斯卡 Maja Ostaszewska
       达尼尔·奥勒布里斯基 Daniel Olbrychski
       克里斯提娜·杨达 Krystyna Janda
       马格达莱娜·谢莱卡 Magdalena Cielecka
       安娜·迪姆纳 Anna Dymna
       马雷克·孔德拉特 Marek Kondrat
       玛格查塔·柯查恰沃斯卡 Małgorzata Kożuchowska
       萨比格尼·瑞比克金斯基 Zbigniew Rybczyński
       安杰列·查拉 Andrzej Chyra
       安嘉·鲁贝克 Anja Rubik
       马里乌什·维尔琴斯基 Mariusz Wilczyński
       克日什托夫·科瓦莱夫斯基 Krzysztof Kowalewski
       芭尔芭拉·克拉夫托夫娜 Barbara Krafftówna
       Irena Kwiatkowska Irena Kwiatkowska
       海伦娜·诺罗维茨 Helena Norowicz
       Wojciech Tomczyk Wojciech Tomczyk
       Hanna Kosinska Hanna Kosinska
       阿格涅什卡·西伯 Agnieszka Scibior

简  介

描绘主角失去挚爱后,将他童年时代的卡通偶像与文学英雄藏在记忆深处。多年来,他在充满想像力的城市中,与这些英雄们同在,只是他发现自己已经长大,再也回不去永恒、不存在的青春岁月,他必须回到现实世界。


影片参数
  1. Video
  2. ID                                       : 1
  3. Format                                   : AVC
  4. Format/Info                              : Advanced Video Codec
  5. Format profile                           : [email protected]
  6. Format settings                          : CABAC / 4 Ref Frames
  7. Format settings, CABAC                   : Yes
  8. Format settings, Reference frames        : 4 frames
  9. Codec ID                                 : V_MPEG4/ISO/AVC
  10. Duration                                 : 1 h 31 min
  11. Bit rate                                 : 8 514 kb/s
  12. Width                                    : 1 920 pixels
  13. Height                                   : 1 038 pixels
  14. Display aspect ratio                     : 1.85:1
  15. Frame rate mode                          : Constant
  16. Frame rate                               : 24.000 FPS
  17. Color space                              : YUV
  18. Chroma subsampling                       : 4:2:0
  19. Bit depth                                : 8 bits
  20. Scan type                                : Progressive
  21. Bits/(Pixel*Frame)                       : 0.178
  22. Stream size                              : 5.43 GiB (98%)
  23. Writing library                          : x264 core 164 r3094 bfc87b7
  24. Encoding settings                        : cabac=1 / ref=4 / deblock=1:-3:-3 / analyse=0x3:0x133 / me=umh / subme=10 / psy=1 / psy_rd=1.20:0.00 / mixed_ref=1 / me_range=24 / chroma_me=1 / trellis=2 / 8x8dct=1 / cqm=0 / deadzone=21,11 / fast_pskip=0 / chroma_qp_offset=-2 / threads=24 / lookahead_threads=4 / sliced_threads=0 / nr=0 / decimate=0 / interlaced=0 / bluray_compat=0 / constrained_intra=0 / bframes=8 / b_pyramid=2 / b_adapt=2 / b_bias=0 / direct=3 / weightb=1 / open_gop=0 / weightp=2 / keyint=250 / keyint_min=24 / scenecut=40 / intra_refresh=0 / rc_lookahead=60 / rc=crf / mbtree=1 / crf=16.0 / qcomp=0.60 / qpmin=0 / qpmax=69 / qpstep=4 / ip_ratio=1.40 / aq=3:0.90
  25. Default                                  : Yes
  26. Forced                                   : No
  27. Color range                              : Limited
  28. Matrix coefficients                      : BT.709

  29. Audio
  30. ID                                       : 2
  31. Format                                   : AC-3
  32. Format/Info                              : Audio Coding 3
  33. Commercial name                          : Dolby Digital
  34. Codec ID                                 : A_AC3
  35. Duration                                 : 1 h 31 min
  36. Bit rate mode                            : Constant
  37. Bit rate                                 : 192 kb/s
  38. Channel(s)                               : 2 channels
  39. Channel layout                           : L R
  40. Sampling rate                            : 48.0 kHz
  41. Frame rate                               : 31.250 FPS (1536 SPF)
  42. Compression mode                         : Lossy
  43. Stream size                              : 125 MiB (2%)
  44. Language                                 : Polish
  45. Service kind                             : Complete Main
  46. Default                                  : Yes
  47. Forced                                   : No

  48. Text #1
  49. ID                                       : 3
  50. Format                                   : UTF-8
  51. Codec ID                                 : S_TEXT/UTF8
  52. Codec ID/Info                            : UTF-8 Plain Text
  53. Duration                                 : 1 h 18 min
  54. Bit rate                                 : 42 b/s
  55. Count of elements                        : 985
  56. Stream size                              : 24.7 KiB (0%)
  57. Title                                    : English (Forced)
  58. Language                                 : English
  59. Default                                  : Yes
  60. Forced                                   : Yes

  61. Text #2
  62. ID                                       : 4
  63. Format                                   : PGS
  64. Muxing mode                              : zlib
  65. Codec ID                                 : S_HDMV/PGS
  66. Codec ID/Info                            : Picture based subtitle format used on BDs/HD-DVDs
  67. Duration                                 : 1 h 18 min
  68. Bit rate                                 : 18.3 kb/s
  69. Count of elements                        : 1970
  70. Stream size                              : 10.4 MiB (0%)
  71. Language                                 : English
  72. Default                                  : No
  73. Forced                                   : No

  74. Text #3
  75. ID                                       : 5
  76. Format                                   : PGS
  77. Muxing mode                              : zlib
  78. Codec ID                                 : S_HDMV/PGS
  79. Codec ID/Info                            : Picture based subtitle format used on BDs/HD-DVDs
  80. Duration                                 : 1 h 18 min
  81. Bit rate                                 : 16.9 kb/s
  82. Count of elements                        : 1876
  83. Stream size                              : 9.57 MiB (0%)
  84. Language                                 : French
  85. Default                                  : No
  86. Forced                                   : No

  87. Text #4
  88. ID                                       : 6
  89. Format                                   : PGS
  90. Muxing mode                              : zlib
  91. Codec ID                                 : S_HDMV/PGS
  92. Codec ID/Info                            : Picture based subtitle format used on BDs/HD-DVDs
  93. Duration                                 : 1 h 18 min
  94. Bit rate                                 : 18.0 kb/s
  95. Count of elements                        : 1672
  96. Stream size                              : 10.1 MiB (0%)
  97. Language                                 : German
  98. Default                                  : No
  99. Forced                                   : No

  100. Menu
  101. 00:00:00.000                             : Chapter 01
  102. 00:08:27.875                             : Chapter 02
  103. 00:19:13.333                             : Chapter 03
  104. 00:30:34.583                             : Chapter 04
  105. 00:43:18.875                             : Chapter 05
  106. 00:52:37.625                             : Chapter 06
  107. 01:00:33.500                             : Chapter 07
  108. 01:10:04.750                             : Chapter 08
  109. 01:31:14.417                             : Chapter 09
复制代码

杀掉它,然后离开这个小镇 Kill.It.and.Leave.This.Town.2020.1080p.BluRay.x264-ORBS 5.56GB

杀掉它,然后离开这个小镇 Kill.It.and.Leave.This.Town.2020.1080p.BluRay.x264-ORBS 5.56GB



蓝光高清网提示您 点击下方附件即可下载

杀掉它,然后离开这个小镇 Kill.It.and.Leave.This.Town.2020.1080p.BluRay.x264-ORBS 5.56GB

Kill.It.and.Leave.This.Town.2020.1080p.BluRay.x264-ORBS.torrent ( 14.68 KB )

加入蓝光高清网VIP会员  无限制下载本站所有资源---点这里

资源下载、资源播放、字幕使用、无法下载等常见问题---点这里
回复

使用道具 举报

全部回复0 显示全部楼层

发表回复

您需要登录后才可以回帖 登录 | 立即注册

本版积分规则

联系客服 关注微信 下载APP 返回顶部 返回列表