蓝光高清网

搜索
开启左侧

幸运 / 开运奇遇记 / Good Luck Bad Luck/祝你好运4K.Luck.2022.2160p.ATVP.WEB-DL.x265.10bit.HDR.DDP5.1.Atmos-4K电影下载-18.49 GB

1080pro 发表于 2022-8-5 21:21:54 | 显示全部楼层 |阅读模式
祝你好运 豆瓣评分: 无评分
上映时间:2022年
类型:喜剧 动画 奇幻 冒险 
地区:美国 
导演:佩吉·霍姆斯
主演:伊娃·诺布勒札达 / 西蒙·佩吉 / 简·方达 / 乌比·戈德堡 / 弗卢拉·博格
画质标准:4K HDR  封装音轨:Dolby TrueHD 5.1 
简       介

  简·方达将为动画新片[幸运]中的主要角色配音。该片由佩吉·霍姆斯([小叮当与海盗仙子])执导,由基尔·默里([赛车总动员])操刀剧本。故事讲述在一个好运气和坏运气互相碰撞的世界中,一个不幸的女孩必须介入并拯救这个世界。 简·方达将为龙配音,龙是热情洋溢的掌管好运气的CEO,她是毫无争议的最幸运的远古生物。龙很优雅,风格明确,她强大并且有说服力。唯一比好运更好的事情就是更多的好运,所以当坏运气开始失控,她必须直面自己的恐惧,面临永远失去好运气的风险。该片由天空之舞与苹果联合制作。


影片参数
幸运 / 开运奇遇记 / Good Luck Bad Luck/祝你好运4K.Luck.2022.2160p.ATVP.WEB-DL.x265.10bit.HDR.DDP5.1.Atmos-4k电影信息
Video
ID : 1
Format : HEVC
Format/Info : High Efficiency Video Coding
Format profile : Main 10@L5@High
HDR format : SMPTE ST 2086, HDR10 compatible
Codec ID : V_MPEGH/ISO/HEVC
Duration : 1 h 45 min
Bit rate : 24.3 Mb/s
Width : 3 840 pixels
Height : 2 076 pixels
Display aspect ratio : 1.85:1
Frame rate mode : Constant
Frame rate : 23.976 FPS
Color space : YUV
Chroma subsampling : 4:2:0 (Type 2)
Bit depth : 10 bits
Bits/(Pixel*Frame) : 0.127
Stream size : 17.9 GiB (97%)
Language : English
Default : Yes
Forced : No
Color range : Limited
Color primaries : BT.2020
Transfer characteristics : PQ
Matrix coefficients : BT.2020 non-constant
Mastering display color primaries : Display P3
Mastering display luminance : min: 0.0050 cd/m2, max: 1000 cd/m2
Maximum Content Light Level : 1084 cd/m2
Maximum Frame-Average Light Level : 319 cd/m2


Audio
ID : 2
Format : E-AC-3 JOC
Format/Info : Enhanced AC-3 with Joint Object Coding
Commercial name : Dolby Digital Plus with Dolby Atmos
Codec ID : A_EAC3
Duration : 1 h 45 min
Bit rate mode : Constant
Bit rate : 768 kb/s
Channel(s) : 6 channels
Channel layout : L R C LFE Ls Rs
Sampling rate : 48.0 kHz
Frame rate : 31.250 FPS (1536 SPF)
Compression mode : Lossy
Stream size : 579 MiB (3%)
Language : English
Service kind : Complete Main
Default : Yes
Forced : No
Complexity index : 16
Number of dynamic objects : 15
Bed channel count : 1 channel
Bed channel configuration : LFE


Text #1
ID : 3
Format : UTF-8
Codec ID : S_TEXT/UTF8
Codec ID/Info : UTF-8 Plain Text
Duration : 1 h 35 min
Bit rate : 68 b/s
Frame rate : 0.239 FPS
Count of elements : 1371
Stream size : 48.0 KiB (0%)
Language : English
Default : No
Forced : No


Text #2
ID : 4
Format : UTF-8
Codec ID : S_TEXT/UTF8
Codec ID/Info : UTF-8 Plain Text
Duration : 1 h 36 min
Bit rate : 77 b/s
Frame rate : 0.280 FPS
Count of elements : 1616
Stream size : 54.8 KiB (0%)
Title : SDH
Language : English
Default : No
Forced : No


Text #3
ID : 5
Format : UTF-8
Codec ID : S_TEXT/UTF8
Codec ID/Info : UTF-8 Plain Text
Duration : 1 h 44 min
Bit rate : 101 b/s
Frame rate : 0.220 FPS
Count of elements : 1374
Stream size : 77.6 KiB (0%)
Language : Arabic
Default : No
Forced : No


Text #4
ID : 6
Format : UTF-8
Codec ID : S_TEXT/UTF8
Codec ID/Info : UTF-8 Plain Text
Duration : 1 h 44 min
Bit rate : 95 b/s
Frame rate : 0.215 FPS
Count of elements : 1342
Stream size : 73.1 KiB (0%)
Language : Bulgarian
Default : No
Forced : No






Text #41
ID : 43
Format : UTF-8
Codec ID : S_TEXT/UTF8
Codec ID/Info : UTF-8 Plain Text
Duration : 1 h 44 min
Bit rate : 61 b/s
Frame rate : 0.225 FPS
Count of elements : 1408
Stream size : 46.8 KiB (0%)
Title : Traditional
Default : No
Forced : No


Text #42
ID : 44
Format : UTF-8
Codec ID : S_TEXT/UTF8
Codec ID/Info : UTF-8 Plain Text
Duration : 1 h 44 min
Bit rate : 60 b/s
Frame rate : 0.225 FPS
Count of elements : 1407
Stream size : 45.8 KiB (0%)
Title : zh-Hans
Language : Chinese
Default : No
Forced : No


Text #43
ID : 45
Format : UTF-8
Codec ID : S_TEXT/UTF8
Codec ID/Info : UTF-8 Plain Text
Duration : 1 h 44 min
Bit rate : 60 b/s
Frame rate : 0.225 FPS
Count of elements : 1408
Stream size : 46.5 KiB (0%)
Title : zh-Hant
Language : Chinese
Default : No
Forced : No


蓝光高清网提示您 点击下方附件名称 即可开始下载


多版本下载时请注意区分


幸运 / 开运奇遇记 / Good Luck Bad Luck/祝你好运4K.Luck.2022.2160p.ATVP.WEB-DL.x265.10bit.HDR.DDP5.1.Atmos-4K电影信息

祝你好运4K.Luck.2022.2160p.ATVP.WEB-DL.x265.10bit.HDR.DDP5.1.Atmos-简繁中字【4K HDR 18.49 GB】

祝你好运4K.Luck.2022.2160p.ATVP.WEB-DL.x265.10bit.HDR.DDP5.1.Atmos-CM.torrent ( 23.76 KB )



祝你好运4K.Luck.2022.2160p.ATVP.WEB-DL.x265.10bit.SDR.DDP5.1.Atmos-简繁中字【4K SDR 15.74 GB】

祝你好运4K.Luck.2022.2160p.ATVP.WEB-DL.x265.10bit.SDR.DDP5.1.Atmos-CM.torrent ( 20.32 KB )




回复

使用道具 举报

全部回复1 显示全部楼层
PCHUN 发表于 2022-8-6 00:27:48 | 显示全部楼层
Thanks for sharing
回复 支持 反对

使用道具 举报

发表回复

您需要登录后才可以回帖 登录 | 立即注册

本版积分规则

联系客服 关注微信 下载APP 返回顶部 返回列表